NetHD.org

10 Rules for Sleeping Around 2013 1080p WEB-DL H264-RARBG

Download 10 Rules for Sleeping Around 2013 1080p WEB-DL H264-RARBG 
Small Description10 Rules for Sleeping Around 2013/Ratings: 4.0/10
Basic Info
Uploaded bynhupha (Extreme User) at 2014-05-15 08:03:34
Action
Hot Meter
  • Views: 1746
  • Hits: 141
  • Snatched: 71 x time(s)
  • Last Action: 2016-12-21 09:00:29
Peers0 Seeder | 0 Leecher

  • 0


10 Rules for Sleeping Around 2013 1080p WEB-DL H264-RARBG
http://www.imdb.com/title/tt1993391/
Info:
Video
ID                                       : 1
Format                                   : AVC
Format/Info                              : Advanced Video Codec
Format profile                           : High@L4.0
Format settings, CABAC                   : Yes
Format settings, ReFrames                : 4 frames
Codec ID                                 : V_MPEG4/ISO/AVC
Duration                                 : 1h 34mn
Bit rate                                 : 4 831 Kbps
Width                                    : 1 920 pixels
Height                                   : 1 080 pixels
Display aspect ratio                     : 16:9
Frame rate mode                          : Constant
Frame rate                               : 23.976 fps
Color space                              : YUV
Chroma subsampling                       : 4:2:0
Bit depth                                : 8 bits
Scan type                                : Progressive
Bits/(Pixel*Frame)                       : 0.097
Stream size                              : 3.18 GiB (91%)
Language                                 : English
Default                                  : Yes
Forced                                   : No
Color primaries                          : BT.709
Transfer characteristics                 : BT.709
Matrix coefficients                      : BT.709

Audio
ID                                       : 2
Format                                   : AC-3
Format/Info                              : Audio Coding 3
Mode extension                           : CM (complete main)
Format settings, Endianness              : Big
Codec ID                                 : A_AC3
Duration                                 : 1h 34mn
Bit rate mode                            : Constant
Bit rate                                 : 384 Kbps
Channel(s)                               : 6 channels
Channel positions                        : Front: L C R, Side: L R, LFE
Sampling rate                            : 48.0 KHz
Bit depth                                : 16 bits
Compression mode                         : Lossy
Stream size                              : 259 MiB (7%)
Language                                 : English
Default                                  : Yes
Forced                                   : No

Menu
00:00:00.000                             : en:An Emergency
00:09:33.000                             : en:What\'s Your Secret
00:18:58.000                             : en:Off to the Hamptons
00:30:27.000                             : en:Surprise Guests
00:39:42.000                             : en:You\'re Both Bad
00:49:55.000                             : en:Not What It Looks Like
01:00:45.000                             : en:Winging It
01:11:14.000                             : en:Welcome to the Ball
01:20:34.000                             : en:Happens All the Time
01:30:10.000                             : en:Credits
Screens:

10 Rules for Sleeping Around 2013 1080p WEB-DL H264-RARBG screenshots
10 Rules for Sleeping Around 2013 1080p WEB-DL H264-RARBG screenshots
10 Rules for Sleeping Around 2013 1080p WEB-DL H264-RARBG screenshots
10 Rules for Sleeping Around 2013 1080p WEB-DL H264-RARBG screenshots
10 Rules for Sleeping Around 2013 1080p WEB-DL H264-RARBG screenshots
10 Rules for Sleeping Around 2013 1080p WEB-DL H264-RARBG screenshots
10 Rules for Sleeping Around 2013 1080p WEB-DL H264-RARBG screenshots
10 Rules for Sleeping Around 2013 1080p WEB-DL H264-RARBG screenshots
10 Rules for Sleeping Around 2013 1080p WEB-DL H264-RARBG screenshots
10 Rules for Sleeping Around 2013 1080p WEB-DL H264-RARBG screenshots
10 Rules for Sleeping Around 2013 1080p WEB-DL H264-RARBG screenshots
10 Rules for Sleeping Around 2013 1080p WEB-DL H264-RARBG screenshots

Title10 Rules for Sleeping Around
Year2013
Genre
Rating3.7 (2,655 votes)
Plotn/A
DirectorLeslie Greif
CastsTammin Sursok,Virginia Williams,Chris Marquette,Jesse Bradford,Zakiya Alta Lee…
Runtime94 min
10 Rules for Sleeping Around


The Other Woman 2014 720p BluRay DD5.1 x264-EbPRough Night 2017 ViE 720p BluRay DD5.1 x264-DONTacones lejanos 1991 720p BluRay FLAC 2.0 x264-SbRThe Naked Gun: From the Files of Police Squad! 1988 720p BluRay DTS x264-CRiSCAll Roads Lead to Rome 2015 720p BluRay DTS x264-CRiSCHall Pass 2011 1080p Blu-ray AVC DTS-HD MA 5.1-HDChina

Only members can create comment.