NetHD.org

100 Miles to 40 2010 1080p WEB DD2.1 x264-AMRAP

Download 100 Miles to 40 2010 1080p WEB DD2.1 x264-AMRAP 
Small DescriptionAn old gold miner's path over the Sierra Nevada Mountains. Just a pair of running shoes. What will you do for your next birthday?
Basic Info
Uploaded byAnonymous at 2019-09-13 23:06:15
Action
Hot Meter
  • Views: 245
  • Hits: 16
  • Snatched: 12 x time(s)
  • Last Action: 2020-01-19 19:29:35
Peers2 Seeder | 0 Leecher



Quote


Video
ID                                       : 1
Format                                   : AVC
Format/Info                              : Advanced Video Codec
Format profile                           : High@L4
Format settings, CABAC                   : Yes
Format settings, ReFrames                : 4 frames
Codec ID                                 : V_MPEG4/ISO/AVC
Duration                                 : 1h 7mn
Bit rate                                 : 12.0 Mbps
Width                                    : 1 920 pixels
Height                                   : 1 080 pixels
Display aspect ratio                     : 16:9
Frame rate mode                          : Constant
Frame rate                               : 29.970 (30000/1001) fps
Color space                              : YUV
Chroma subsampling                       : 4:2:0
Bit depth                                : 8 bits
Scan type                                : Progressive
Bits/(Pixel*Frame)                       : 0.193
Stream size                              : 5.62 GiB (98%)
Language                                 : English
Default                                  : Yes
Forced                                   : No
Color range                              : Limited
Color primaries                          : BT.709
Transfer characteristics                 : BT.709
Matrix coefficients                      : BT.709

Audio
ID                                       : 2
Format                                   : E-AC-3
Format/Info                              : Audio Coding 3
Format settings, Endianness              : Big
Codec ID                                 : A_EAC3
Duration                                 : 1h 7mn
Bit rate mode                            : Constant
Bit rate                                 : 224 Kbps
Channel(s)                               : 2 channels
Channel positions                        : Front: L R
Sampling rate                            : 48.0 KHz
Frame rate                               : 187.500 fps (256 spf)
Compression mode                         : Lossy
Stream size                              : 107 MiB (2%)
Language                                 : English
Default                                  : Yes
Forced                                   : No

Text
ID                                       : 3
Format                                   : UTF-8
Codec ID                                 : S_TEXT/UTF8
Codec ID/Info                            : UTF-8 Plain Text
Duration                                 : 1h 0mn
Bit rate                                 : 96 bps
Count of elements                        : 1426
Stream size                              : 43.0 KiB (0%)
Title                                    : English
Language                                 : English
Default                                  : No
Forced                                   : No




100 Miles to 40 2010 1080p WEB DD2.1 x264-AMRAP screenshots 100 Miles to 40 2010 1080p WEB DD2.1 x264-AMRAP screenshots 100 Miles to 40 2010 1080p WEB DD2.1 x264-AMRAP screenshots 100 Miles to 40 2010 1080p WEB DD2.1 x264-AMRAP screenshots 100 Miles to 40 2010 1080p WEB DD2.1 x264-AMRAP screenshots 100 Miles to 40 2010 1080p WEB DD2.1 x264-AMRAP screenshots 100 Miles to 40 2010 1080p WEB DD2.1 x264-AMRAP screenshots 100 Miles to 40 2010 1080p WEB DD2.1 x264-AMRAP screenshots 100 Miles to 40 2010 1080p WEB DD2.1 x264-AMRAP screenshots 100 Miles to 40 2010 1080p WEB DD2.1 x264-AMRAP screenshots
Title100 Miles to 40
Year2010
GenreDocumentary
Rating7.4 (14 votes)
PlotMichelle has two teenage daughters, a loving husband, a dog, a cat, a successful surgical sales company, and an endless pile of laundry. She is about to turn 40 years old. Life is so busy, she can't remember what she did for her last birthday. That won't happen this year. The Western States Endurance Run is an ultra-marathon which starts near Squaw Valley, California and winds 100 miles through the Sierra Nevada mountains along an old gold miners path. Qualifying racers only get one day to…
DirectorChris Halsne
Castsn/A
Runtime67 min
100 Miles to 40


City of Ghosts 2017 1080p Blu-ray AVC DTS-HD MA 5.1-KillerHDLand Of The Lost Wolves 2012 720p BluRay x264-DONMagic Money: The Bitcoin Revolution 2017 1080p WEB-DL DD2.0 H.264-QOQOne Life 2011 1080p BluRay DTS x264-HDMaNiAcSHunting Hitler S03E01 720p HDTV x264-KILLERSHunting Hitler S03E04 720p HDTV x264-KILLERS

Only members can create comment.