NetHD.org

12 Years a Slave 2013 1080p BluRay Remux AVC TrueHD 5.1-PTer

Download 12 Years a Slave 2013 1080p BluRay Remux AVC TrueHD 5.1-PTer 
Small DescriptionBased on an incredible true story of one man's fight for survival and freedom. In the pre-Civil War United States, Solomon Northup, a free black man from upstate New York, is abducted and sold into slavery. Facing cruelty personified by a malevolent slave owner, as well as unexpected kindnesses, Solomon struggles not only to stay alive, but to retain his dignity. In the twelfth year of his unforgettable odyssey, Solomon's chance meeting with a Canadian abolitionist will forever alter his life.
Basic Info
Uploaded byAncREOsH (Power User) at 2020-10-18 15:48:15
Action
Hot Meter
  • Views: 59
  • Hits: 8
  • Snatched: 4 x time(s)
  • Last Action: 2020-10-28 20:45:47
Peers1 Seeder | 0 Leecher




CODE
General
Unique ID                                : 223865407702189800183126050864337294581 (0xA86AE8C2AE92A378C128D4F609F094F5)
Complete name                            : 12 Years a Slave 2013 1080p Blu-ray Remux AVC TrueHD 5.1-PTer.mkv
Format                                   : Matroska
Format version                           : Version 4
File size                                : 18.3 GiB
Duration                                 : 2 h 14 min
Overall bit rate mode                    : Variable
Overall bit rate                         : 19.6 Mb/s
Encoded date                             : UTC 2020-10-17 23:18:28
Writing application                      : mkvmerge v51.0.0 ('I Wish') 64-bit
Writing library                          : libebml v1.4.0 + libmatroska v1.6.2

Video
ID                                       : 1
Format                                   : AVC
Format/Info                              : Advanced Video Codec
Format profile                           : High@L4.1
Format settings                          : CABAC / 4 Ref Frames
Format settings, CABAC                   : Yes
Format settings, Reference frames        : 4 frames
Codec ID                                 : V_MPEG4/ISO/AVC
Duration                                 : 2 h 14 min
Bit rate mode                            : Variable
Bit rate                                 : 16.8 Mb/s
Maximum bit rate                         : 25.0 Mb/s
Width                                    : 1 920 pixels
Height                                   : 1 080 pixels
Display aspect ratio                     : 16:9
Frame rate mode                          : Constant
Frame rate                               : 23.976 (24000/1001) FPS
Standard                                 : NTSC
Color space                              : YUV
Chroma subsampling                       : 4:2:0
Bit depth                                : 8 bits
Scan type                                : Progressive
Bits/(Pixel*Frame)                       : 0.338
Stream size                              : 15.7 GiB (86%)
Default                                  : Yes
Forced                                   : No
Color range                              : Limited
Color primaries                          : BT.709
Transfer characteristics                 : BT.709
Matrix coefficients                      : BT.709

Audio #1
ID                                       : 2
Format                                   : MLP FBA
Format/Info                              : Meridian Lossless Packing FBA
Commercial name                          : Dolby TrueHD
Codec ID                                 : A_TRUEHD
Duration                                 : 2 h 14 min
Bit rate mode                            : Variable
Bit rate                                 : 2 029 kb/s
Maximum bit rate                         : 3 156 kb/s
Channel(s)                               : 6 channels
Channel layout                           : L R C LFE Ls Rs
Sampling rate                            : 96.0 kHz
Frame rate                               : 1 200.000 FPS (80 SPF)
Compression mode                         : Lossless
Stream size                              : 1.90 GiB (10%)
Title                                    : English
Language                                 : English
Default                                  : Yes
Forced                                   : No

Audio #2
ID                                       : 3
Format                                   : AC-3
Format/Info                              : Audio Coding 3
Commercial name                          : Dolby Digital
Codec ID                                 : A_AC3
Duration                                 : 2 h 14 min
Bit rate mode                            : Constant
Bit rate                                 : 640 kb/s
Channel(s)                               : 6 channels
Channel layout                           : L R C LFE Ls Rs
Sampling rate                            : 48.0 kHz
Frame rate                               : 31.250 FPS (1536 SPF)
Compression mode                         : Lossy
Stream size                              : 614 MiB (3%)
Title                                    : English Compatible
Language                                 : English
Service kind                             : Complete Main
Default                                  : No
Forced                                   : No

Text #1
ID                                       : 4
Format                                   : PGS
Muxing mode                              : zlib
Codec ID                                 : S_HDMV/PGS
Codec ID/Info                            : Picture based subtitle format used on BDs/HD-DVDs
Duration                                 : 2 h 7 min
Bit rate                                 : 27.6 kb/s
Count of elements                        : 2820
Stream size                              : 25.2 MiB (0%)
Title                                    : English
Language                                 : English
Default                                  : Yes
Forced                                   : No

Text #2
ID                                       : 5
Format                                   : PGS
Muxing mode                              : zlib
Codec ID                                 : S_HDMV/PGS
Codec ID/Info                            : Picture based subtitle format used on BDs/HD-DVDs
Duration                                 : 2 h 7 min
Bit rate                                 : 24.3 kb/s
Count of elements                        : 2820
Stream size                              : 22.2 MiB (0%)
Title                                    : Chinese Traditional
Language                                 : Chinese
Default                                  : No
Forced                                   : No

Menu
00:00:00.000                             : en:Chapter 01
00:05:37.295                             : en:Chapter 02
00:12:32.835                             : en:Chapter 03
00:18:53.299                             : en:Chapter 04
00:27:22.891                             : en:Chapter 05
00:35:42.307                             : en:Chapter 06
00:44:51.147                             : en:Chapter 07
00:52:01.994                             : en:Chapter 08
00:59:08.462                             : en:Chapter 09
01:05:38.977                             : en:Chapter 10
01:12:22.421                             : en:Chapter 11
01:18:06.307                             : en:Chapter 12
01:23:21.121                             : en:Chapter 13
01:27:53.310                             : en:Chapter 14
01:33:44.619                             : en:Chapter 15
01:41:24.745                             : en:Chapter 16
01:52:44.341                             : en:Chapter 17
01:59:56.648                             : en:Chapter 18
02:03:41.831                             : en:Chapter 19
02:07:00.154                             : en:Chapter 20


12 Years a Slave 2013 1080p BluRay Remux AVC TrueHD 5.1-PTer screenshots12 Years a Slave 2013 1080p BluRay Remux AVC TrueHD 5.1-PTer screenshots12 Years a Slave 2013 1080p BluRay Remux AVC TrueHD 5.1-PTer screenshots12 Years a Slave 2013 1080p BluRay Remux AVC TrueHD 5.1-PTer screenshots12 Years a Slave 2013 1080p BluRay Remux AVC TrueHD 5.1-PTer screenshots12 Years a Slave 2013 1080p BluRay Remux AVC TrueHD 5.1-PTer screenshots
Title12 Năm Nô Lệ
Year2013
GenreBiography
Rating8.1 (629,625 votes)
PlotBased on an incredible true story of one man's fight for survival and freedom. In the pre-Civil War United States, Solomon Northup, a free black man from upstate New York, is abducted and sold into slavery. Facing cruelty personified by a malevolent slave owner, as well as unexpected kindnesses, Solomon struggles not only to stay alive, but to retain his dignity. In the twelfth year of his unforgettable odyssey, Solomon's chance meeting with a Canadian abolitionist will forever alter his life.
DirectorSteve McQueen
CastsChiwetel Ejiofor / Dwight Henry / Dickie Gravois / Bryan Batt / Ashley Dyke…
Runtime134 min
12 Năm Nô Lệ

No keyword! (Click to edit!)

Spider-Man: Far from Home 2019 1080p Blu-ray AVC DTS-HD MA 7.1-LatinoMegaHDDon't Go 2018 720p BluRay DD5.1 x264-DONHelios 2015 1080p  BluRay DD5.1 x264-VietHDWhen sun meets moon 2018 mHD BluRay DD5.1 x264-TRiMCut Off 2020 1080p WEB-DL H264 AC3-EVOCloverfield 2008 1080p UHD BluRay DD5.1 HDR x265-Chotab