NetHD.org

The Passion of Joan of Arc 1928 MoC BluRay 1080p x264 FLAC-CMCT

Download The Passion of Joan of Arc 1928 MoC BluRay 1080p x264 FLAC-CMCT 
Small DescriptionBÀI CA KHỔ HÌNH CỦA JOAN OF ARC / La passion de Jeanne d'Arc
Basic Info
Uploaded bydpc (Movie, Music) at 2018-03-03 22:10:26
Action
Hot Meter
  • Views: 540
  • Hits: 9
  • Snatched: 3 x time(s)
  • Last Action: 2018-03-29 14:36:38
Peers0 Seeder | 0 Leecher



The Passion of Joan of Arc 1928 MoC BluRay 1080p x264 FLAC-CMCT screenshots


The Passion of Joan of Arc (tiếng Pháp: La Passion de Jeanne d'Arc) là một bộ phim câm được sản xuất tại Pháp năm 1928. Nó dựa vào câu chuyện người nữ chiến binh huyền thoại của nước Pháp sống tại thế kỷ 15 trong “Cuộc chiến trăm năm” giữa Pháp và Anh, Joan of Arc. Sinh thời cô mang trong mình niềm tin mãnh liệt rằng mình được thiên khải dẫn dắt giúp giải phóng nước Pháp đánh bại quân Anh, và nổi lên như một thiên tài quân sự ở tuổi 17. Cô bị người Anh bắt giữ, bị tòa án giáo hội xét xử, bị kết tội phù thủy và phải lên giàn hỏa thiêu khi chỉ mới 19 tuổi. Nội dung phim tập trung vào thời gian Joan of Arc bị bắt làm tù nhân nước Anh, miêu tả lại quá trình cô bị xét xử, bị cầm tù, tra khảo nhục mạ. Trước đức tin của Joan of Arc, một số người đã xem cô là vị thánh cứu thế, nhưng một số khác lại cho cô là phù thủy, và cuối cùng họ hành quyết cô.


The Passion of Joan of Arc 1928 MoC BluRay 1080p x264 FLAC-CMCT screenshots


Quote
General
Unique ID                   : 192236972973240546095109555996212084052 (0x909F7E884410F0D3AC53BA30C4983D54)
Complete name               : C:\Phim\圣女贞德蒙难记.1928.MoC.1080p.简繁中字£CMCT风潇潇\[圣女贞德蒙难记].The.Passion.of.Joan.of.Arc.1928.MoC.BluRay.1080p.x264.FLAC-CMCT.mkv
Format                      : Matroska
Format version              : Version 4 / Version 2
File size                   : 8.00 GiB
Duration                    : 1 h 36 min
Overall bit rate mode       : Variable
Overall bit rate            : 11.9 Mb/s
Encoded date                : UTC 2018-03-02 15:51:44
Writing application         : mkvmerge v17.0.0 ('Be Ur Friend') 64-bit
Writing library             : libebml v1.3.5 + libmatroska v1.4.8
Attachments                 : hwkaiti.ttf / cronospro.otf

Video
ID                          : 1
Format                      : AVC
Format/Info                 : Advanced Video Codec
Format profile              : High@L4.1
Format settings, CABAC      : Yes
Format settings, ReFrames   : 5 frames
Codec ID                    : V_MPEG4/ISO/AVC
Duration                    : 1 h 36 min
Bit rate                    : 11.5 Mb/s
Width                       : 1 440 pixels
Height                      : 1 080 pixels
Display aspect ratio        : 4:3
Frame rate mode             : Constant
Frame rate                  : 24.000 FPS
Color space                 : YUV
Chroma subsampling          : 4:2:0
Bit depth                   : 8 bits
Scan type                   : Progressive
Bits/(Pixel*Frame)          : 0.309
Stream size                 : 7.74 GiB (97%)
Title                       : 风潇潇压制@CMCT
Writing library             : x264 core 142 r2431 ac76440
Encoding settings           : cabac=1 / ref=5 / deblock=1:-3:-3 / analyse=0x3:0x133 / me=umh / subme=10 / psy=1 / psy_rd=1.00:0.00 / mixed_ref=1 / me_range=32 / chroma_me=1 / trellis=2 / 8x8dct=1 / cqm=0 / deadzone=21,11 / fast_pskip=0 / chroma_qp_offset=-2 / threads=12 / lookahead_threads=1 / sliced_threads=0 / nr=0 / decimate=1 / interlaced=0 / bluray_compat=0 / constrained_intra=0 / bframes=6 / b_pyramid=2 / b_adapt=2 / b_bias=0 / direct=1 / weightb=1 / open_gop=0 / weightp=2 / keyint=240 / keyint_min=22 / scenecut=40 / intra_refresh=0 / rc_lookahead=60 / rc=2pass / mbtree=1 / bitrate=11525 / ratetol=1.0 / qcomp=0.60 / qpmin=0 / qpmax=69 / qpstep=4 / cplxblur=20.0 / qblur=0.5 / vbv_maxrate=50000 / vbv_bufsize=50000 / nal_hrd=none / filler=0 / ip_ratio=1.40 / aq=1:1.00
Language                    : French
Default                     : Yes
Forced                      : No

Audio
ID                          : 2
Format                      : FLAC
Format/Info                 : Free Lossless Audio Codec
Codec ID                    : A_FLAC
Duration                    : 1 h 36 min
Bit rate mode               : Variable
Bit rate                    : 360 kb/s
Channel(s)                  : 2 channels
Channel positions           : Front: L R
Sampling rate               : 48.0 kHz
Frame rate                  : 11.719 FPS (4096 spf)
Bit depth                   : 16 bits
Stream size                 : 247 MiB (3%)
Title                       : A.FLAC
Writing library             : libFLAC 1.3.2 (UTC 2017-01-01)
Language                    : French
Default                     : Yes
Forced                      : No

Text #1
ID                          : 3
Format                      : ASS
Codec ID                    : S_TEXT/ASS
Codec ID/Info               : Advanced Sub Station Alpha
Duration                    : 1 h 36 min
Bit rate                    : 18 b/s
Count of elements           : 202
Compression mode            : Lossless
Stream size                 : 13.2 KiB (0%)
Title                       : 简体ASS
Language                    : Chinese
Default                     : Yes
Forced                      : No

Text #2
ID                          : 4
Format                      : ASS
Codec ID                    : S_TEXT/ASS
Codec ID/Info               : Advanced Sub Station Alpha
Duration                    : 1 h 36 min
Bit rate                    : 21 b/s
Count of elements           : 202
Compression mode            : Lossless
Stream size                 : 15.0 KiB (0%)
Title                       : 繁体ASS
Language                    : Chinese
Default                     : No
Forced                      : No




The Passion of Joan of Arc 1928 MoC BluRay 1080p x264 FLAC-CMCT screenshots


The Passion of Joan of Arc 1928 MoC BluRay 1080p x264 FLAC-CMCT screenshots The Passion of Joan of Arc 1928 MoC BluRay 1080p x264 FLAC-CMCT screenshots The Passion of Joan of Arc 1928 MoC BluRay 1080p x264 FLAC-CMCT screenshots The Passion of Joan of Arc 1928 MoC BluRay 1080p x264 FLAC-CMCT screenshots



The Passion of Joan of Arc 1928 MoC BluRay 1080p x264 FLAC-CMCT screenshots



TitleLa passion de Jeanne d'Arc
Year1928
Genre
Rating8.2 (41,370 votes)
PlotGiovanna is taken to the Inquisition court. . After the accusation of blasphemy continues to pray in ecstasy . A friar thinks that Giovanna is a saint, but is taken away by the soldiers. Giovanna sees a cross in the shadow and feels comforted. She is not considered a daughter of God but a daughter of the devil and is sentenced to torture. Giovanna D 'Arco says that even if she dies she will not deny anything. The eyes are twisted by terror in front of the torture wheel and faint. Giovanna is…
DirectorCarl Theodor Dreyer
CastsMaria Falconetti,Eugene Silvain,André Berley,Maurice Schutz,Antonin Artaud…
Runtime110 min
La passion de Jeanne d


The Tale of Iya 2013 mHD BluRay DD5.1 x264-TRiMLast Tango in Paris 1972 1080p UNCUT BluRay DTS x264-D-Z0N3Only Lovers Left Alive 2013 m720p HDTV AAC2.0 H.264-NTVMemoirs of a Teenage Amnesiac 2010 720p BluRay DD5.1 x264-EbP  Gifted 2017 mHD BluRay DD5.1 x264-TRiM  Hotel Mumbai 2018 1080p Blu-ray AVC DTS-HD MA 5.1-PCH

Only members can create comment.