NetHD.org

A Dogs Journey 2019 1080p BluRay DTS5.1 x264 -TWA

Download A Dogs Journey 2019 1080p BluRay DTS5.1 x264 -TWA 
Small DescriptionA dog finds the meaning of his own existence through the lives of the humans he meets.
Basic Info
Uploaded byAnonymous at 2019-09-14 08:47:13
Action
Hot Meter
  • Views: 126
  • Hits: 16
  • Snatched: 10 x time(s)
  • Last Action: 2019-10-15 08:44:31
Peers1 Seeder | 0 Leecher



Quote
Video
ID                                       : 1
Format                                   : AVC
Format/Info                              : Advanced Video Codec
Format profile                           : High@L4
Format settings, CABAC                   : Yes
Format settings, ReFrames                : 3 frames
Format settings, GOP                     : M=1, N=24
Codec ID                                 : V_MPEG4/ISO/AVC
Duration                                 : 1h 48mn
Bit rate mode                            : Variable
Bit rate                                 : 10.0 Mbps
Maximum bit rate                         : 12.6 Mbps
Width                                    : 1 920 pixels
Height                                   : 1 080 pixels
Display aspect ratio                     : 16:9
Frame rate mode                          : Constant
Frame rate                               : 23.976 (24000/1001) fps
Color space                              : YUV
Chroma subsampling                       : 4:2:0
Bit depth                                : 8 bits
Scan type                                : Progressive
Bits/(Pixel*Frame)                       : 0.202
Stream size                              : 7.62 GiB (87%)
Default                                  : Yes
Forced                                   : No
Color range                              : Limited
Color primaries                          : BT.709
Transfer characteristics                 : BT.709
Matrix coefficients                      : BT.709

Audio
ID                                       : 2
Format                                   : DTS
Format/Info                              : Digital Theater Systems
Mode                                     : 16
Format settings, Endianness              : Big
Codec ID                                 : A_DTS
Duration                                 : 1h 48mn
Bit rate mode                            : Constant
Bit rate                                 : 1 509 Kbps
Channel(s)                               : 6 channels
Channel positions                        : Front: L C R, Side: L R, LFE
Sampling rate                            : 48.0 KHz
Frame rate                               : 93.750 fps (512 spf)
Bit depth                                : 16 bits
Compression mode                         : Lossy
Stream size                              : 1.15 GiB (13%)
Language                                 : English
Default                                  : Yes
Forced                                   : No


A Dogs Journey 2019 1080p BluRay DTS5.1 x264 -TWA screenshots A Dogs Journey 2019 1080p BluRay DTS5.1 x264 -TWA screenshots A Dogs Journey 2019 1080p BluRay DTS5.1 x264 -TWA screenshots A Dogs Journey 2019 1080p BluRay DTS5.1 x264 -TWA screenshots A Dogs Journey 2019 1080p BluRay DTS5.1 x264 -TWA screenshots A Dogs Journey 2019 1080p BluRay DTS5.1 x264 -TWA screenshots A Dogs Journey 2019 1080p BluRay DTS5.1 x264 -TWA screenshots A Dogs Journey 2019 1080p BluRay DTS5.1 x264 -TWA screenshots A Dogs Journey 2019 1080p BluRay DTS5.1 x264 -TWA screenshots A Dogs Journey 2019 1080p BluRay DTS5.1 x264 -TWA screenshots
TitleA Dog's Journey
Year2019
Genre
Rating7.4 (9,351 votes)
Plotn/A
DirectorGail Mancuso
CastsJosh Gad,Dennis Quaid,Kathryn Prescott,Marg Helgenberger,Betty Gilpin…
Runtime109 min
A Dog


Marco Polo 2014 S01 1080p NF WEBRip DD5.1 x264-NTbHigh Road to China 1983 1080p BluRay DTS x264-PFaEurotrip 2004 mHD BluRay DD5.1 x264-TRiMLe château de ma mère 1990 720p BluRay DTS x264-DONUnder the Mountain 2009 mHD BluRay DD5.1 x264-TRiMOz the Great and Powerful 2013 1080p 3D Blu-ray AVC DTS-HD MA 7.1-HDCLUB

Only members can create comment.