A Touch of Zen 1971 BDRip 1080p x264 DTS CHI-Hunsub-69

Download A Touch of Zen 1971 BDRip 1080p x264 DTS CHI-Hunsub-69 Free
Small Description[Kinh điển] Hiệp nữ 1971
Basic Info
Uploaded byvalnguyen (Insane User) at 2016-08-27 21:02:42
Action
Social
  • 5
Hot Meter
  • Views: 248
  • Hits: 22
  • Snatched: 10 x time(s)
  • Last Action: 2017-04-19 21:01:07
Peers0 Seeder | 0 Leecher
Hiệp nữ
(A Touch of Zen) 1971


A Touch of Zen 1971 BDRip 1080p x264 DTS CHI-Hunsub-69 screenshots


Giám chế: Hạ Ngô Phương Lương
Kịch bản: Hồ Kim Thuyên
Đạo diễn: Hồ Kim Thuyên


Các diễn viên chính:
- Từ Phong ...... Dương Tuệ Trinh
- Thạch Tuyển ...... Cố Tỉnh Trai
- Bạch Ưng ...... Thạch Vấn Tiều
- Điền Bằng ...... Âu Dương Niên
- Kiều Hoành ...... Tuệ Viên


Thời Minh Vạn Lịch, có chàng thư sinh là Cố Tỉnh Trai hành nghề bán thư họa để nuôi mẹ già. Một ngày nọ, một cô gái họ Dương đến xin tá túc, cảm ơn hai mẹ con anh chàng họ Cố cưu mang, xin gá nghĩa phu phụ. Không ngờ cô gái đó chính là Dương Tuệ Trinh, là con gái của Phó đô ngự sử Dương Liên, vì phụ thân đàn hặc hoạn quan Ngụy Trung Hiền nên bị Đông Xưởng truy lùng. Trước tình cảnh nguy hiểm, dù chỉ là một thư sinh trói gà không chặt, Cố bèn thiết kế cơ quan cạm bẫy, giả thần giả quỷ, cùng Tuệ Trinh, được cao tăng Tuệ Viên tương trợ, chống lại bọn Đông Xưởng truy sát, bảo vệ gia đình...

Đây là một trong 3 bộ phim kiếm hiệp kinh điển của đạo diễn Hồ Kim Thuyên, được bình chọn ở vị trí thứ 9 trong danh sách 100 phim hay nhất của điện ảnh Hoa ngữ do Giải thưởng Điện ảnh Hồng Kông (HKFA) bình chọn năm 2005. Các phim còn lại của ông trong danh sách này là Long Môn khách sạn (Dragon Gate Inn, thứ 7) và Không sơn linh vũ (Raining in the Mountain, thứ 59).


A Touch of Zen 1971 BDRip 1080p x264 DTS CHI-Hunsub-69 screenshots




General
Format                                   : Matroska
Format version                           : Version 4 / Version 2
File size                                : 24.4 GiB
Duration                                 : 2 h 59 min
Overall bit rate                         : 19.4 Mb/s
Movie name                               : A.Touch.of.Zen.1971.BDRip.1080p.x264.DTS.CHI-Hunsub-69.mkv

Video
ID                                       : 1
Format                                   : AVC
Format/Info                              : Advanced Video Codec
Format profile                           : High@L4.1
Format settings, CABAC                   : Yes
Format settings, ReFrames                : 5 frames
Codec ID                                 : V_MPEG4/ISO/AVC
Duration                                 : 2 h 59 min
Bit rate                                 : 18.0 Mb/s
Width                                    : 1 920 pixels
Height                                   : 818 pixels
Display aspect ratio                     : 2.35:1
Frame rate mode                          : Constant
Frame rate                               : 23.976 (24000/1001) FPS
Color space                              : YUV
Chroma subsampling                       : 4:2:0
Bit depth                                : 8 bits
Scan type                                : Progressive
Bits/(Pixel*Frame)                       : 0.478
Stream size                              : 22.6 GiB (93%)
Title                                    : A.Touch.of.Zen.1971.BDRip.1080p_by_vedigo
Writing library                          : x264 core 148 r2665 a01e339
Default                                  : Yes
Forced                                   : No

Audio #1
ID                                       : 2
Format                                   : DTS
Format/Info                              : Digital Theater Systems
Mode                                     : 16
Format settings, Endianness              : Big
Codec ID                                 : A_DTS
Duration                                 : 2 h 59 min
Bit rate mode                            : Constant
Bit rate                                 : 768 kb/s
Channel(s)                               : 1 channel
Channel positions                        : Front: C
Sampling rate                            : 48.0 kHz
Frame rate                               : 93.750 FPS (512 spf)
Bit depth                                : 24 bits
Compression mode                         : Lossy
Stream size                              : 987 MiB (4%)
Title                                    : original
Language                                 : Chinese
Default                                  : Yes
Forced                                   : No

Audio #2
ID                                       : 3
Format                                   : AC-3
Format/Info                              : Audio Coding 3
Mode extension                           : CM (complete main)
Format settings, Endianness              : Big
Codec ID                                 : A_AC3
Duration                                 : 2 h 59 min
Bit rate mode                            : Constant
Bit rate                                 : 640 kb/s
Channel(s)                               : 1 channel
Channel positions                        : Front: C
Sampling rate                            : 48.0 kHz
Frame rate                               : 31.250 FPS (1536 spf)
Compression mode                         : Lossy
Stream size                              : 822 MiB (3%)
Language                                 : Chinese
Default                                  : No
Forced                                   : No

Text #1
ID                                       : 4
Format                                   : UTF-8
Codec ID                                 : S_TEXT/UTF8
Codec ID/Info                            : UTF-8 Plain Text
Duration                                 : 2 h 58 min
Bit rate                                 : 18 b/s
Count of elements                        : 784
Stream size                              : 24.6 KiB (0%)
Language                                 : Hungarian
Default                                  : Yes
Forced                                   : No

Text #2
ID                                       : 5
Format                                   : UTF-8
Codec ID                                 : S_TEXT/UTF8
Codec ID/Info                            : UTF-8 Plain Text
Duration                                 : 2 h 58 min
Bit rate                                 : 16 b/s
Count of elements                        : 908
Stream size                              : 21.7 KiB (0%)
Language                                 : English
Default                                  : No
Forced                                   : No
TitleXia nü
Year1971
GenreAction / Adventure / Drama / Thriller
Rating7.6 (3,909 votes)
PlotAn artist, Ku, lives with his mother near an abandoned fort, reputed to be haunted. One night, investigating strange noises, he meets the beautiful Yang who is living there. She is being pursued by agents of an Imperial noble who have murdered her family. Ku finds himself caught up in her struggle to survive, and many fierce battles take place before all is resolved. Action adventure with a lyrical feel, this is a kung fu film with a strong spiritual element. Written by Richard Hills
DirectorKing Hu
CastsFeng Hsu / Chun Shih / Ying Bai / Billy Chan / Ming-Wai Chan…
Runtime200 min
GenresAction / Adventure / Drama / Thriller
Xia nü


Tags

Other releases

Same genre with A Touch of Zen 1971 BDRip 1080p x264 DTS CHI-Hunsub-69

Mulholland Drive 2001 720p BluRay DTS x264-CtrlHDJolene 2008 720p BluRay DD5.1 x264-EbPThe Guys 2002 HDTV AAC2.0 H.264-NTVBhaag Milkha Bhaag 2013 720p BluRay DD5.1 x264-NTbPicnic At Hanging Rock 1975 DC ViE 720p BluRay DTS x264-CiNEFiLEThe Walking Dead S06 720p WEB-DL DD5.1 H.264-Cyphanix

Comment for A Touch of Zen 1971 BDRip 1080p x264 DTS CHI-Hunsub-69

Only members can create comment.