NetHD.org

Abduction 2019 ViE 1080p BluRay DTS x264-iNVANDRAREN

Download Abduction 2019 ViE 1080p BluRay DTS x264-iNVANDRAREN 
Small DescriptionTruy Sát (2019) | Thuyết minh, Vietsub
Basic Info
Uploaded byJonhy (Bố Quẩy) at 2019-06-11 22:09:02
Action
Hot Meter
  • Views: 1260
  • Hits: 288
  • Snatched: 225 x time(s)
  • Last Action: 2019-09-15 15:26:55
Peers22 Seeder | 0 Leecher




Abduction 2019 ViE 1080p BluRay DTS x264-iNVANDRAREN screenshots


Abduction 2019 ViE 1080p BluRay DTS x264-iNVANDRAREN screenshots



Quote
Truy Sát (Abduction) còn có tên là Đêm Hoàng Đạo. Abduction bắt đầu từ tình tiết khi tỉnh lại giữa căn phòng đầy rẫy những xác chết kì dị, Quinn (Scott Adkins) nhận ra mình và con gái đang bị người ngoài hành tinh bắt cóc, một thế lực siêu nhiên do ba bóng người mặc áo trùm đầu màu đen điều khiển. Trong lúc cố gắng chống trả để cứu cô con gái bé bỏng của mình, Quinn bị rơi vào không gian vô định và đi thẳng đến tương lai của 30 năm sau tại một quốc gia xa lạ trong tình trạng mất hết kí ức. Cùng lúc đó, Connor (An Chí Kiệt), một tay lính đánh thuê cũng phát hiện người vợ trẻ của mình cũng bị mất tích một cách bí ẩn. Với sự giúp đỡ của nữ bác sĩ tâm lý xinh đẹp Anna (Trương Ngọc Ánh) và tiến sĩ Gong, một nhà khoa học lập dị nhưng biết tường tận về sự hiện diện của người ngoài hành tinh trên trái đất. Họ đã lần theo dấu vết của thế lực siêu nhiên là những người trùm mũ đen kỳ lạ.




Abduction 2019 ViE 1080p BluRay DTS x264-iNVANDRAREN screenshots



Quote
Video
Format/Info                    : Advanced Video Codec
Format profile                 : High@L4.1
Duration                         : 1 h 37 min
Bit rate                           : 8 085 kb/s
Width                             : 1920 pixels
Height                            : 1080 pixels
Display aspect ratio         : 16:9
Frame rate                     : 24.000 FPS
Language                       : English

Audio #1
Format/Info                    : Digital Theater Systems
Duration                         : 1 h 37 min
Bit rate                           : 1509 kb/s
Channel(s)                      : 6 channels
Sampling rate                  : 48.0 kHz
Frame rate                       : 93.750 FPS (512 SPF)
Stream size                      : 1.03 GiB (14%)
Language                         : Vietnamese

Audio #2
Format/Info                    : Digital Theater Systems
Duration                         : 1 h 37 min
Bit rate                           : 1509 kb/s
Channel(s)                      : 6 channels
Sampling rate                  : 48.0 kHz
Frame rate                      : 93.750 FPS (512 SPF)
Stream size                     : 1.03 GiB (14%)
Language                        : English





Abduction 2019 ViE 1080p BluRay DTS x264-iNVANDRAREN screenshots


Abduction 2019 ViE 1080p BluRay DTS x264-iNVANDRAREN screenshotsAbduction 2019 ViE 1080p BluRay DTS x264-iNVANDRAREN screenshotsAbduction 2019 ViE 1080p BluRay DTS x264-iNVANDRAREN screenshotsAbduction 2019 ViE 1080p BluRay DTS x264-iNVANDRAREN screenshots


Abduction 2019 ViE 1080p BluRay DTS x264-iNVANDRAREN screenshots


TitleAbduction
Year2019
Genre
Rating5.9 (1,834 votes)
PlotThis pulse-pounding action thriller pits two strangers against a nefarious alien force, with the future of mankind hanging in the balance. Quinn Scott Adkins, a member of a SWAT unit, steps out of a park fountain in an Asian city with no recollection of who he is or where he came from. As he pieces together clues from his past, he vaguely recalls his young daughter, who has been kidnapped. Meanwhile, Connor Andy On, a former military operative turned gangster-for-hire, discovers that his wife…
DirectorErnie Barbarash
CastsScott Adkins,Andy On,Truong Ngoc Anh,Lily Ji,Aki Aleong…
Runtime98 min
Abduction


Agents of S.H.I.E.L.D S06E01 1080p AMZN WEB-DL DDP5.1 H.264-T6DLake Placid vs. Anaconda 2015 1080p WEB-DL DD5.1 x264-RKWolf Warriors 2015 720p BluRay DD5.1 x264-WiKiThe Mechanic 2011 1080p BluRay DD5 1 x264-EbPAssassination Nation 2018 1080p BluRay DD5.1 x264-DONWhy Dont You Play in Hell 2013 mHD BluRay DD5.1 x264-TRiM

Only members can create comment.