NetHD.org

Abusement Park 1947 1080p BluRay DTS x264-REGRET

Download Abusement Park 1947 1080p BluRay DTS x264-REGRET 
Small DescriptionPopeye and Bluto battle over Olive in an amusement park/carnival. First, Bluto breaks a couple of strength-testing devices, but Popeye still manages to one-better him. Then, Popeye and Olive go in the Tunnel of Love. Popeye and Bluto trade places in the boat and swimming behind, but eventually the two of them end up in the boat with Olive behind. Bluto makes off with her to the photographer's booth, but when Olive refuses to spice up the pose, he gets violent. He drives the prop car onto the…
Basic Info
Uploaded byAnonymous at 2019-07-11 16:13:02
Action
Hot Meter
  • Views: 50
  • Hits: 8
  • Snatched: 2 x time(s)
  • Last Action: 2019-07-14 17:52:41
Peers1 Seeder | 0 Leecher



Abusement Park 1947 1080p BluRay DTS x264-REGRET screenshots













Abusement Park 1947 1080p BluRay DTS x264-REGRET screenshots


General
Unique ID                                : 247784105880828720966134589881378986000 (0xBA697BA108502B1DA8B2CD4AF74CD810)
Complete name                            : K:\popeye-abusement.park.1947.1080p.bluray.x264-regret.mkv
Format                                   : Matroska
Format version                           : Version 4 / Version 2
File size                                : 340 MiB
Duration                                 : 7 min 7 s
Overall bit rate                         : 6 677 kb/s
Encoded date                             : UTC 2019-07-05 16:49:34
Writing application                      : mkvmerge v8.3.0 ('Over the Horizon') 64bit
Writing library                          : libebml v1.3.1 + libmatroska v1.4.2

Video
ID                                       : 1
Format                                   : AVC
Format/Info                              : Advanced Video Codec
Format profile                           : High@L4.1
Format settings                          : CABAC / 4 Ref Frames
Format settings, CABAC                   : Yes
Format settings, RefFrames               : 4 frames
Codec ID                                 : V_MPEG4/ISO/AVC
Duration                                 : 7 min 7 s
Bit rate                                 : 5 168 kb/s
Width                                    : 1 488 pixels
Height                                   : 1 080 pixels
Display aspect ratio                     : 1.378
Frame rate mode                          : Constant
Frame rate                               : 23.976 (24000/1001) FPS
Color space                              : YUV
Chroma subsampling                       : 4:2:0
Bit depth                                : 8 bits
Scan type                                : Progressive
Bits/(Pixel*Frame)                       : 0.134
Stream size                              : 263 MiB (77%)
Writing library                          : x264 core 157 r2935 545de2f
Encoding settings                        : cabac=1 / ref=4 / deblock=1:-3:-3 / analyse=0x3:0x133 / me=umh / subme=9 / psy=1 / psy_rd=1.00:0.00 / mixed_ref=1 / me_range=16 / chroma_me=1 / trellis=2 / 8x8dct=1 / cqm=0 / deadzone=21,11 / fast_pskip=0 / chroma_qp_offset=-2 / threads=24 / lookahead_threads=2 / sliced_threads=0 / nr=0 / decimate=1 / interlaced=0 / bluray_compat=0 / constrained_intra=0 / bframes=3 / b_pyramid=2 / b_adapt=1 / b_bias=0 / direct=3 / weightb=1 / open_gop=0 / weightp=2 / keyint=240 / keyint_min=24 / scenecut=40 / intra_refresh=0 / rc_lookahead=50 / rc=2pass / mbtree=1 / bitrate=5168 / ratetol=1.0 / qcomp=0.60 / qpmin=0 / qpmax=69 / qpstep=4 / cplxblur=20.0 / qblur=0.5 / ip_ratio=1.40 / aq=1:1.00
Language                                 : English
Default                                  : Yes
Forced                                   : No

Audio
ID                                       : 2
Format                                   : DTS
Format/Info                              : Digital Theater Systems
Codec ID                                 : A_DTS
Duration                                 : 7 min 7 s
Bit rate mode                            : Constant
Bit rate                                 : 1 509 kb/s
Channel(s)                               : 2 channels
Channel positions                        : Front: L R
Sampling rate                            : 48.0 kHz
Frame rate                               : 93.750 FPS (512 SPF)
Bit depth                                : 24 bits
Compression mode                         : Lossy
Stream size                              : 76.9 MiB (23%)
Language                                 : English
Default                                  : Yes
Forced                                   : No

Text #1
ID                                       : 3
Format                                   : UTF-8
Codec ID                                 : S_TEXT/UTF8
Codec ID/Info                            : UTF-8 Plain Text
Duration                                 : 6 min 13 s
Bit rate                                 : 26 b/s
Count of elements                        : 47
Stream size                              : 1.20 KiB (0%)
Title                                    : English
Language                                 : English
Default                                  : No
Forced                                   : No

Text #2
ID                                       : 4
Format                                   : UTF-8
Codec ID                                 : S_TEXT/UTF8
Codec ID/Info                            : UTF-8 Plain Text
Duration                                 : 6 min 59 s
Bit rate                                 : 37 b/s
Count of elements                        : 103
Stream size                              : 1.93 KiB (0%)
Title                                    : English SDH
Language                                 : English
Default                                  : No
Forced                                   : No













Abusement Park 1947 1080p BluRay DTS x264-REGRET screenshots


Abusement Park 1947 1080p BluRay DTS x264-REGRET screenshotsAbusement Park 1947 1080p BluRay DTS x264-REGRET screenshotsAbusement Park 1947 1080p BluRay DTS x264-REGRET screenshots
Abusement Park 1947 1080p BluRay DTS x264-REGRET screenshotsAbusement Park 1947 1080p BluRay DTS x264-REGRET screenshotsAbusement Park 1947 1080p BluRay DTS x264-REGRET screenshots


TitleAbusement Park
Year1947
Genre
Rating6.7 (84 votes)
PlotPopeye and Bluto battle over Olive in an amusement park/carnival. First, Bluto breaks a couple of strength-testing devices, but Popeye still manages to one-better him. Then, Popeye and Olive go in the Tunnel of Love. Popeye and Bluto trade places in the boat and swimming behind, but eventually the two of them end up in the boat with Olive behind. Bluto makes off with her to the photographer's booth, but when Olive refuses to spice up the pose, he gets violent. He drives the prop car onto the…
DirectorIzzy Sparber
CastsJackson Beck,Mae Questel,Harry Welch
Runtime7 min
Abusement Park


Puss in Boots 2011 1080p CEE Blu-Ray AVC TrueHD 5.1-BLUEBIRDThe Good Dinosaur 2015 1080p Blu-ray AVC DTS-HD MA 7.1-FiLELiSTWalking With Dinosaurs 3D 2013 1080p BluRay Half-SBS DTS x264-PublicHDAstérix Le domaine des dieux 2014 ViE 720p BluRay DD5.1 x264-CRiME Titan A.E. 2000 m720p HDTV AAC2.0 H.264-NTVHotel Transylvania 3: Summer Vacation 2018 1080p EUR Blu-ray AVC DTS-HD MA 5.1-BLUEBIRD

Only members can create comment.