NetHD.org

After Porn Ends 2 2017 1080p WEB-DL DD5.1 x264-iNTENSO

Download After Porn Ends 2 2017 1080p WEB-DL DD5.1 x264-iNTENSO 
Small DescriptionCó Cân Nhắc
Basic Info
Uploaded byAnonymous at 2019-01-08 14:58:47
Action
Social
  • 16
Hot Meter
  • Views: 2451
  • Hits: 210
  • Snatched: 149 x time(s)
  • Last Action: 2019-01-21 14:15:45
Peers38 Seeder | 0 Leecher
After Porn Ends 2 2017 1080p WEB-DL DD5.1 x264-iNTENSO screenshots



Quote
General
Unique ID                      : 205101749688356064277107175987623980894 (0x9A4D28FEBEC01F4CBFEEE51C99FB6F5E)
Complete name                  : After.Porn.Ends.2.2017.1080p.WEB-DL.x264-iNTENSO.mkv
Format                         : Matroska
Format version                 : Version 4 / Version 2
File size                      : 6.01 GiB
Duration                       : 1 h 39 min
Overall bit rate               : 8 658 kb/s
Encoded date                   : UTC 2017-06-15 06:53:48
Writing application            : mkvmerge v6.9.1 ('Blue Panther') 32bit built on Apr 18 2014 18:15:44
Writing library                : libebml v1.3.0 + libmatroska v1.4.1

Video
ID                             : 1
Format                         : AVC
Format/Info                    : Advanced Video Codec
Format profile                 : High@L4.1
Format settings, CABAC         : Yes
Format settings, ReFrames      : 4 frames
Codec ID                       : V_MPEG4/ISO/AVC
Duration                       : 1 h 39 min
Bit rate                       : 8 102 kb/s
Width                          : 1 920 pixels
Height                         : 1 080 pixels
Display aspect ratio           : 16:9
Frame rate mode                : Constant
Frame rate                     : 23.976 (24000/1001) FPS
Color space                    : YUV
Chroma subsampling             : 4:2:0
Bit depth                      : 8 bits
Scan type                      : Progressive
Bits/(Pixel*Frame)             : 0.163
Stream size                    : 5.62 GiB (94%)
Writing library                : x264 core 150 r2833 df79067
Encoding settings              : cabac=1 / ref=4 / deblock=1:-3:-3 / analyse=0x3:0x133 / me=umh / subme=11 / psy=1 / psy_rd=1.05:0.15 / mixed_ref=1 / me_range=16 / chroma_me=1 / trellis=2 / 8x8dct=1 / cqm=0 / deadzone=21,11 / fast_pskip=0 / chroma_qp_offset=-3 / threads=12 / lookahead_threads=1 / sliced_threads=0 / nr=0 / decimate=1 / interlaced=0 / bluray_compat=0 / constrained_intra=0 / bframes=3 / b_pyramid=2 / b_adapt=2 / b_bias=0 / direct=3 / weightb=1 / open_gop=0 / weightp=2 / keyint=250 / keyint_min=24 / scenecut=40 / intra_refresh=0 / rc_lookahead=50 / rc=crf / mbtree=1 / crf=17.0 / qcomp=0.60 / qpmin=0 / qpmax=69 / qpstep=4 / ip_ratio=1.40 / aq=3:0.65
Language                       : English
Default                        : Yes
Forced                         : No

Audio
ID                             : 2
Format                         : AC-3
Format/Info                    : Audio Coding 3
Mode extension                 : CM (complete main)
Format settings, Endianness    : Big
Codec ID                       : A_AC3
Duration                       : 1 h 39 min
Bit rate mode                  : Constant
Bit rate                       : 384 kb/s
Channel(s)                     : 6 channels
Channel positions              : Front: L C R, Side: L R, LFE
Sampling rate                  : 48.0 kHz
Frame rate                     : 31.250 FPS (1536 spf)
Compression mode               : Lossy
Stream size                    : 273 MiB (4%)
Language                       : English
Default                        : Yes
Forced                         : No



After Porn Ends 2 2017 1080p WEB-DL DD5.1 x264-iNTENSO screenshots After Porn Ends 2 2017 1080p WEB-DL DD5.1 x264-iNTENSO screenshots After Porn Ends 2 2017 1080p WEB-DL DD5.1 x264-iNTENSO screenshots After Porn Ends 2 2017 1080p WEB-DL DD5.1 x264-iNTENSO screenshots After Porn Ends 2 2017 1080p WEB-DL DD5.1 x264-iNTENSO screenshots After Porn Ends 2 2017 1080p WEB-DL DD5.1 x264-iNTENSO screenshots After Porn Ends 2 2017 1080p WEB-DL DD5.1 x264-iNTENSO screenshots After Porn Ends 2 2017 1080p WEB-DL DD5.1 x264-iNTENSO screenshots After Porn Ends 2 2017 1080p WEB-DL DD5.1 x264-iNTENSO screenshots After Porn Ends 2 2017 1080p WEB-DL DD5.1 x264-iNTENSO screenshots After Porn Ends 2 2017 1080p WEB-DL DD5.1 x264-iNTENSO screenshots After Porn Ends 2 2017 1080p WEB-DL DD5.1 x264-iNTENSO screenshots

TitleAfter Porn Ends 2
Year2017
GenreDocumentary
Rating5.4 (1,771 votes)
PlotAfter Porn Ends 2 picks up where its predecessor left off, and not only turns back the clock to meet the oldest living stars in adult film's history, but goes in depth with some of its most current retirees, and juxtaposes their experiences in a life after porn. Delving deeper into society's ongoing stigmas of race, misogyny, and the reality of decreasing opportunities for these former VHS box cover stars. For some, their careers in adult entertainment are accepted proudly and without regret.
DirectorBryce Wagoner
CastsAshley Adams,Brittany Andrews,Lisa Ann,Danny D,Aubrey Gold…
Runtime90 min
GenresDocumentary
After Porn Ends 2


Tags

Other releases

Out of Nothing 2013 1080p GER Blu-ray AVC DTS-HD MA 5.1-iFPDThe True Cost 2015 BluRay REMUX 1080p AVC LPCM2 0-MTeamKhám phá: Hương Cốm SDTV AAC2.0 H.264-NTVLife Story 2014 ViE mHD BluRay DD5.1 x264-TRiMThe Blue Planet - Full 8 episodes - [BBC] [2001] - DVDRipFascinating India 2014 720p BluRay DTS x264-DON

Only members can create comment.