NetHD.org

Aladdin 2019 ViE 1080p WEB-DL H264 AC3 5.1-TVS



Aladdin 2019


Aladdin Và Cây Đèn Thần

{Thuyết minh, Sub Việt mux sẵn}



Aladdin 2019 ViE 1080p WEB-DL H264 AC3 5.1-TVS screenshots



Một chút về Nội dung


Aladdin 2019 là một phiên bản live action đầy màu sắc sống động và không kém phần hồi hộp, được chuyển thể từ bộ phim hoạt hình kinh điển cả hãng phim Disney. Câu chuyện xoay quanh chàng hoàng tử khu ổ chuột Aladdin – một thanh niên trẻ tuổi dũng cảm và nàng công chúa Jasmine mạnh mẽ, đương nhiên phải kể đến thần đèn Genie – người nắm giữ chìa khóa thay đổi tương lại sau này của họ.


Xem qua sơ giới thiệu



Còn đây là Info


Quote
Aladdin 2019 ViE 1080p WEB-DL H264 AC3 5.1-TVS.mkv
Format : Matroska
Format version : Version 4
File size : 6.24 GiB
Duration : 2 h 7 min
Overall bit rate : 6 983 kb/s
Video
ID : 1
Format : AVC
Format/Info : Advanced Video Codec
Format profile : High@L4
Format settings : CABAC / 4 Ref Frames
Format settings, CABAC : Yes
Format settings, Reference frames : 4 frames
Codec ID : V_MPEG4/ISO/AVC
Duration : 2 h 7 min
Bit rate : 6 000 kb/s
Width : 1 920 pixels
Height : 1 080 pixels
Display aspect ratio : 16:9
Frame rate mode : Constant
Frame rate : 23.976 (24000/1001) FPS
Color space : YUV
Chroma subsampling : 4:2:0
Bit depth : 8 bits
Scan type : Progressive
Bits/(Pixel*Frame) : 0.121
Stream size : 5.32 GiB (77%)
Title : Aladdin 2019
Audio #1
ID : 2
Format : AC-3
Format/Info : Audio Coding 3
Commercial name : Dolby Digital
Codec ID : A_AC3
Duration : 2 h 7 min
Bit rate mode : Constant
Bit rate : 384 kb/s
Channel(s) : 6 channels
Channel layout : L R C LFE Ls Rs
Sampling rate : 48.0 kHz
Frame rate : 31.250 FPS (1536 SPF)
Bit depth : 16 bits
Compression mode : Lossy
Stream size : 351 MiB (5%)
Title : Aladdin 2019
Language : English
Service kind : Complete Main
Default : No
Forced : No

Audio #2
ID : 5
Format : AC-3
Format/Info : Audio Coding 3
Commercial name : Dolby Digital
Codec ID : A_AC3
Duration : 2 h 7 min
Bit rate mode : Constant
Bit rate : 640 kb/s
Channel(s) : 6 channels
Channel layout : L R C LFE Ls Rs
Sampling rate : 48.0 kHz
Frame rate : 31.250 FPS (1536 SPF)
Bit depth : 16 bits
Compression mode : Lossy
Stream size : 586 MiB (9%)
Title : TVS
Language : Vietnamese
Service kind : Complete Main
Default : Yes
Forced : No


Text #1
ID : 3
Format : UTF-8
Codec ID : S_TEXT/UTF8
Codec ID/Info : UTF-8 Plain Text
Duration : 1 h 58 min
Bit rate : 50 b/s
Count of elements : 1682
Stream size : 43.4 KiB (0%)
Language : English
Default : No
Forced : No

Text #2
ID : 4
Format : UTF-8
Codec ID : S_TEXT/UTF8
Codec ID/Info : UTF-8 Plain Text
Duration : 2 h 7 min
Bit rate : 69 b/s
Count of elements : 2433
Stream size : 65.1 KiB (0%)
Title : SDH
Language : English
Default : No
Forced : No

Text #3
ID : 6
Format : UTF-8
Codec ID : S_TEXT/UTF8
Codec ID/Info : UTF-8 Plain Text
Duration : 2 h 6 min
Bit rate : 90 b/s
Count of elements : 2109
Stream size : 84.3 KiB (0%)
Language : Vietnamese
Default : Yes
Forced : No




Cùng xem sơ hình chụp



Aladdin 2019 ViE 1080p WEB-DL H264 AC3 5.1-TVS screenshots Aladdin 2019 ViE 1080p WEB-DL H264 AC3 5.1-TVS screenshots


Aladdin 2019 ViE 1080p WEB-DL H264 AC3 5.1-TVS screenshots Aladdin 2019 ViE 1080p WEB-DL H264 AC3 5.1-TVS screenshots


Aladdin 2019 ViE 1080p WEB-DL H264 AC3 5.1-TVS screenshots Aladdin 2019 ViE 1080p WEB-DL H264 AC3 5.1-TVS screenshots





Kính mời ACE tải!


TitleAladdin
Year2019
Genre
Rating7.2 (107,117 votes)
PlotA kind-hearted street urchin Aladdin vies for the love of the beautiful princess Jasmine, the princess of Agrabah. When he finds a magic lamp, he uses a genie's magic power to make himself a prince in order to marry her. He is also on a mission to stop the powerful Jafar who plots to steal the magic lamp that could make his deepest wishes come true. Written by Santhosh
DirectorGuy Ritchie
CastsWill Smith,Mena Massoud,Naomi Scott,Marwan Kenzari,Navid Negahban…
Runtime128 min
Aladdin


The Green Inferno 2015 ViE 720p WEB-DL DD5.1 H.264-PLAYNOWLowriders 2016 1080p BluRay DTS x264-SAPHiREThe 100 Year Old Man Who Climbed Out the Window and Disappeared 2013 720p BRRip x264 AAC-JYKFantastic Beasts and Where to Find Them 2016 2160p UHD Blu-ray HEVC HDR Atmos7.1Where the Wild Things Are 2009 1080p BluRay DTS x264-EbPTracks 2013 1080p BluRay DTS x264-HDAccess

Only members can create comment.