NetHD.org

All About Tin 1993 ViE 720p HDTV MPEG-2 x264

Download All About Tin 1993 ViE 720p HDTV MPEG-2 x264 
Small DescriptionMa Đao Hiệp Tình 1993 TVB
Basic Info
Uploaded byphivan (Crazy User) at 2019-01-11 13:23:10
Action
Social
  • 6
Hot Meter
  • Views: 688
  • Hits: 99
  • Snatched: 50 x time(s)
  • Last Action: 2019-06-19 22:52:22
Peers3 Seeder | 0 Leecher


MA ĐAO HIP TÌNH

Giám chế: Lưu Sĩ Dụ

Năm sản xuất: 1993



Nội dung

Quote
Tên Việt: Ma Đao Hiệp Tình
Tên Anh: All About Tin
Tên Gốc: 魔刀侠情
Số tập: 18
Giám chế: Lưu Sĩ Dụ
Diễn viên:
Ôn Triệu Luân – Dương Kháng Thiên
Trương Triệu Huy – Khúc Nhẫn
Thái Thiếu Phân – Tiểu Tuyết
Hồng Hân – Lam Lăng
La Lạc Lâm – Dược Nguyên
Dương Đắc Thời – Nhất Giới
Thôi Gia Bảo – Lý Sương Sương
Vương Tiểu Yến – Thanh Thanh

Nội Dung
Trong nhân gian lưu truyền một truyền thuyết về núi lửa, trong đó có chứa một tuyệt thế kiếm pháp. Khúc Ẩn rất tin về truyền thuyết này, cố tìm ra kiếm phổ và thần đao, nhằm xưng bá võ lâm. Bước đầu tiên Khúc Ẩn vào Thiếu Lâm Tự làm tiểu hòa thượng.Ngày kia, Thiên Nhất Giáo Chủ Nghịch Thiên Duy Ngã cùng vợ là Cổ Sương Sương đến thăm Thiếu Lâm, và muốn mượn Đạt Ma kiếm phổ xem, nhưng bị cự tuyệt, Sương Sương vì muốn đạt được mục địch bèn hiến thân cho Khúc Ẩn để lấy kiếm phổ, ai ngờ bi Nghịch Thiên phát hiện.Mười năm sau khi hai vợ chồng Liệt Vân và Nô Nhi bị 8 đại chưởng môn giết chết. Trước khi chết, Liệt Vân nhờ Nghịch Thiên nuôi dưỡng dùm con mình là Kháng Thiên. Hai mươi năm sau, Kháng Thiên trưởng thành, giải bỏ hiềm khích giữa anh và 8 đại môn phái. Cùng nhau hợp sức tiêu diệt Khúc Ẩn để trả mối thù xưa kia của cha chàng là Liệt Vân.


Media Info


Quote
Ma Dao Hiep Tinh 1993\Ma Đao Hiệp Tình 1993-01.mkv
Format                      : Matroska
Format version              : Version 4 / Version 2
File size                   : 877 MiB
Duration                    : 46 min
Overall bit rate            : 2 624 kb/s
Encoded date                : UTC 2016-03-06 18:03:43
Writing application         : mkvmerge v7.9.0 ('Birds') 64bit
Writing library             : libebml v1.3.1 + libmatroska v1.4.2

Video
ID                          : 1
Format                      : AVC
Format/Info                 : Advanced Video Codec
Format profile              : High@L4.1
Format settings, CABAC      : Yes
Format settings, ReFrames   : 8 frames
Codec ID                    : V_MPEG4/ISO/AVC
Duration                    : 46 min
Bit rate                    : 2 400 kb/s
Width                       : 1 280 pixels
Height                      : 720 pixels
Display aspect ratio        : 16:9
Frame rate mode             : Constant
Frame rate                  : 25.000 FPS
Standard                    : PAL
Color space                 : YUV
Chroma subsampling          : 4:2:0
Bit depth                   : 8 bits
Scan type                   : Progressive
Bits/(Pixel*Frame)          : 0.104
Stream size                 : 802 MiB (91%)
Default                     : Yes
Forced                      : No
Color range                 : Limited
Color primaries             : BT.709
Transfer characteristics    : BT.709
Matrix coefficients         : BT.709

Audio #1
ID                          : 2
Format                      : MPEG Audio
Format version              : Version 1
Format profile              : Layer 3
Codec ID                    : A_MPEG/L3
Codec ID/Hint               : MP3
Duration                    : 46 min
Bit rate mode               : Constant
Bit rate                    : 128 kb/s
Channel(s)                  : 2 channels
Sampling rate               : 44.1 kHz
Frame rate                  : 38.281 FPS (1152 spf)
Compression mode            : Lossy
Delay relative to video     : -80 ms
Stream size                 : 42.7 MiB (5%)
Title                       : USLT
Writing library             : LAMELAME
Language                    : Vietnamese
Default                     : Yes
Forced                      : No

Audio #2
ID                          : 3
Format                      : AAC
Format/Info                 : Advanced Audio Codec
Format profile              : LC
Codec ID                    : A_AAC
Duration                    : 46 min
Bit rate                    : 93.6 kb/s
Channel(s)                  : 2 channels
Channel positions           : Front: L R
Sampling rate               : 44.1 kHz
Frame rate                  : 43.066 FPS (1024 spf)
Compression mode            : Lossy
Delay relative to video     : -80 ms
Stream size                 : 31.3 MiB (4%)
Language                    : Chinese
Default                     : No
Forced                      : No



Screenshots

All About Tin 1993 ViE 720p HDTV MPEG-2 x264 screenshots All About Tin 1993 ViE 720p HDTV MPEG-2 x264 screenshots All About Tin 1993 ViE 720p HDTV MPEG-2 x264 screenshots All About Tin 1993 ViE 720p HDTV MPEG-2 x264 screenshots All About Tin 1993 ViE 720p HDTV MPEG-2 x264 screenshots All About Tin 1993 ViE 720p HDTV MPEG-2 x264 screenshots


My Lucky Stars 2: Twinkle Twinkle Lucky Stars 1985 mHD Bluray DD5.1 x264-TRiMThe Hunt for Red October 1990 1080p Blu-ray  AC3 x264-CHDThe Hobbit: An Unexpected Journey 2012 720p BluRay DD5.1  x264-trancRambo III 1988 ViE 1080p BluRay DTS x264-CtrlHDThe Flash S04E03 720p AMZN WEBRip DDP5.1 x264-ViSUMPacific Rim: Uprising 2018 REPACK 1080p BluRay DTS x264-VietHD

Only members can create comment.