NetHD.org

All’s Fair at the Fair 1947 1080p BluRay DTS x264-REGRET

Download All’s Fair at the Fair 1947 1080p BluRay DTS x264-REGRET 
Small DescriptionBluto, the daring hot air balloon rider, catches the eye of Olive at a carnival, much to Popeye's chagrin. Bluto manages to make Popeye look bad several times, eventually winning a ring at the ball toss and taking her up in his balloon. Of course, he tries to get fresh with her, and Popeye comes to the rescue with the help of some fireworks. The hot air balloon gets a bit too hot, putting Olive in even more danger. Written by Jon Reeves
Basic Info
Uploaded byAnonymous at 2019-07-11 16:07:41
Action
Hot Meter
  • Views: 45
  • Hits: 10
  • Snatched: 4 x time(s)
  • Last Action: 2019-07-22 07:32:58
Peers1 Seeder | 0 Leecher



All’s Fair at the Fair 1947 1080p BluRay DTS x264-REGRET screenshots













All’s Fair at the Fair 1947 1080p BluRay DTS x264-REGRET screenshots


General
Unique ID                                : 226948826717400263581703394317022647481 (0xAABCC10E21521541A319B246077DD4B9)
Complete name                            : K:\popeye-alls.fair.at.the.fair.1947.1080p.bluray.x264-regret.mkv
Format                                   : Matroska
Format version                           : Version 4 / Version 2
File size                                : 371 MiB
Duration                                 : 7 min 19 s
Overall bit rate                         : 7 076 kb/s
Encoded date                             : UTC 2019-07-05 19:53:19
Writing application                      : mkvmerge v8.3.0 ('Over the Horizon') 64bit
Writing library                          : libebml v1.3.1 + libmatroska v1.4.2

Video
ID                                       : 1
Format                                   : AVC
Format/Info                              : Advanced Video Codec
Format profile                           : High@L4.1
Format settings                          : CABAC / 4 Ref Frames
Format settings, CABAC                   : Yes
Format settings, RefFrames               : 4 frames
Codec ID                                 : V_MPEG4/ISO/AVC
Duration                                 : 7 min 19 s
Bit rate                                 : 5 559 kb/s
Width                                    : 1 488 pixels
Height                                   : 1 080 pixels
Display aspect ratio                     : 1.378
Frame rate mode                          : Constant
Frame rate                               : 23.976 (24000/1001) FPS
Color space                              : YUV
Chroma subsampling                       : 4:2:0
Bit depth                                : 8 bits
Scan type                                : Progressive
Bits/(Pixel*Frame)                       : 0.144
Stream size                              : 292 MiB (79%)
Writing library                          : x264 core 157 r2935 545de2f
Encoding settings                        : cabac=1 / ref=4 / deblock=1:-3:-3 / analyse=0x3:0x133 / me=umh / subme=9 / psy=1 / psy_rd=1.00:0.00 / mixed_ref=1 / me_range=16 / chroma_me=1 / trellis=2 / 8x8dct=1 / cqm=0 / deadzone=21,11 / fast_pskip=0 / chroma_qp_offset=-2 / threads=24 / lookahead_threads=2 / sliced_threads=0 / nr=0 / decimate=1 / interlaced=0 / bluray_compat=0 / constrained_intra=0 / bframes=3 / b_pyramid=2 / b_adapt=1 / b_bias=0 / direct=3 / weightb=1 / open_gop=0 / weightp=2 / keyint=240 / keyint_min=24 / scenecut=40 / intra_refresh=0 / rc_lookahead=50 / rc=2pass / mbtree=1 / bitrate=5559 / ratetol=1.0 / qcomp=0.60 / qpmin=0 / qpmax=69 / qpstep=4 / cplxblur=20.0 / qblur=0.5 / ip_ratio=1.40 / aq=1:1.00
Language                                 : English
Default                                  : Yes
Forced                                   : No

Audio
ID                                       : 2
Format                                   : DTS
Format/Info                              : Digital Theater Systems
Codec ID                                 : A_DTS
Duration                                 : 7 min 19 s
Bit rate mode                            : Constant
Bit rate                                 : 1 509 kb/s
Channel(s)                               : 2 channels
Channel positions                        : Front: L R
Sampling rate                            : 48.0 kHz
Frame rate                               : 93.750 FPS (512 SPF)
Bit depth                                : 24 bits
Compression mode                         : Lossy
Stream size                              : 79.1 MiB (21%)
Language                                 : English
Default                                  : Yes
Forced                                   : No

Text #1
ID                                       : 3
Format                                   : UTF-8
Codec ID                                 : S_TEXT/UTF8
Codec ID/Info                            : UTF-8 Plain Text
Duration                                 : 6 min 34 s
Bit rate                                 : 41 b/s
Count of elements                        : 72
Stream size                              : 2.00 KiB (0%)
Title                                    : English
Language                                 : English
Default                                  : No
Forced                                   : No

Text #2
ID                                       : 4
Format                                   : UTF-8
Codec ID                                 : S_TEXT/UTF8
Codec ID/Info                            : UTF-8 Plain Text
Duration                                 : 7 min 11 s
Bit rate                                 : 54 b/s
Count of elements                        : 139
Stream size                              : 2.88 KiB (0%)
Title                                    : English SDH
Language                                 : English
Default                                  : No
Forced                                   : No













All’s Fair at the Fair 1947 1080p BluRay DTS x264-REGRET screenshots


All’s Fair at the Fair 1947 1080p BluRay DTS x264-REGRET screenshotsAll’s Fair at the Fair 1947 1080p BluRay DTS x264-REGRET screenshotsAll’s Fair at the Fair 1947 1080p BluRay DTS x264-REGRET screenshots
All’s Fair at the Fair 1947 1080p BluRay DTS x264-REGRET screenshotsAll’s Fair at the Fair 1947 1080p BluRay DTS x264-REGRET screenshotsAll’s Fair at the Fair 1947 1080p BluRay DTS x264-REGRET screenshots


TitleAll's Fair at the Fair
Year1947
Genre
Rating6.6 (48 votes)
PlotBluto, the daring hot air balloon rider, catches the eye of Olive at a carnival, much to Popeye's chagrin. Bluto manages to make Popeye look bad several times, eventually winning a ring at the ball toss and taking her up in his balloon. Of course, he tries to get fresh with her, and Popeye comes to the rescue with the help of some fireworks. The hot air balloon gets a bit too hot, putting Olive in even more danger. Written by Jon Reeves
DirectorSeymour Kneitel
CastsJackson Beck,Jack Mercer,Mae Questel
Runtime7 min
All


Chicken Little 2005 mHD BluRay DD5.1 x264-TRiMIncredibles 2 2018 1080p UHD BluRay DD+7.1 HDR x265-DONThe Swan Princess: A Royal Family Tale 2014 1080p BluRay DTS x264-HDMaNiAcSTekken: Blood Vengeance 2011 1080p BluRay x264-EbPBelladonna of Sadness 1973 720p BluRay x264-CtrlHDNaruto Shippuuden(Ep 471- 480)

Only members can create comment.