NetHD.org

American Pie Presents: Girls Rules 2020 1080p AMZN WEB-DL DDP5.1 H.264-TOMMY

Download American Pie Presents: Girls Rules 2020 1080p AMZN WEB-DL DDP5.1 H.264-TOMMY 
Small Description18+ | Bánh Mỹ 9 (Ngoại truyện)
Basic Info
Uploaded byAnonymous at 2020-10-11 12:39:34
Action
Hot Meter
  • Views: 1303
  • Hits: 194
  • Snatched: 156 x time(s)
  • Last Action: 2020-10-23 14:24:34
Peers48 Seeder | 0 Leecher



American Pie Presents: Girls Rules 2020 1080p AMZN WEB-DL DDP5.1 H.264-TOMMY screenshots


Tên: American Pie Presents: Girls' Rules
Ngày phát hành: 06 Tháng 10 2020
Thể loại: Hài hước
Đạo diễn: Mike Elliott
Kịch bản: Blayne Weaver, David H. Steinberg
Diễn viên: Madison Pettis, Lizze Broadway, Natasha Behnam, Piper Curda
Liên kết IMDb: https://www.imdb.com/title/tt11771594/

Quote: Giới thiệu
American Pie là thương hiệu điện ảnh ra đời từ năm 1999. Nội dung các bộ phim là những câu chuyện hài hước liên quan đến vấn đề giới tính, tình dục, với nhiều tình tiết 18+. Đây là phần thứ năm của loạt phim American Pie Presents, phần phụ của loạt phim American Pie và là phần thứ chín.


Quote
General
Unique ID                      : 66326567143110924746989592557473409491 (0x31E6083CBF5A03766786EDB5F57AA9D3)
Complete name                  : American.Pie.Presents.Girls.Rules.2020.1080p.AMZN.WEB-DL.DDP5.1.H.264-TOMMY.mkv
Format                         : Matroska
Format version                 : Version 4
File size                      : 6.92 GiB
Duration                       : 1 h 35 min
Overall bit rate               : 10.4 Mb/s
Encoded date                   : UTC 2020-10-06 13:39:16
Writing application            : mkvmerge v44.0.0 (‘Domino‘) 64-bit
Writing library                : libebml v1.3.10 + libmatroska v1.5.2

Video
ID                             : 1
Format                         : AVC
Format/Info                    : Advanced Video Codec
Format profile                 : High@L4
Format settings                : CABAC / 4 Ref Frames
Format settings, CABAC         : Yes
Format settings, Reference fra : 4 frames
Codec ID                       : V_MPEG4/ISO/AVC
Duration                       : 1 h 35 min
Bit rate mode                  : Constant
Bit rate                       : 10 000 kb/s
Width                          : 1 920 pixels
Height                         : 1 080 pixels
Display aspect ratio           : 16:9
Frame rate mode                : Constant
Frame rate                     : 23.976 (24000/1001) FPS
Color space                    : YUV
Chroma subsampling             : 4:2:0
Bit depth                      : 8 bits
Scan type                      : Progressive
Bits/(Pixel*Frame)             : 0.201
Stream size                    : 6.49 GiB (94%)
Default                        : Yes
Forced                         : No
Color range                    : Limited
Color primaries                : BT.709
Transfer characteristics       : BT.709
Matrix coefficients            : BT.709

Audio
ID                             : 2
Format                         : E-AC-3
Format/Info                    : Enhanced AC-3
Commercial name                : Dolby Digital Plus
Codec ID                       : A_EAC3
Duration                       : 1 h 35 min
Bit rate mode                  : Constant
Bit rate                       : 640 kb/s
Channel(s)                     : 6 channels
Channel layout                 : L R C LFE Ls Rs
Sampling rate                  : 48.0 kHz
Frame rate                     : 31.250 FPS (1536 SPF)
Compression mode               : Lossy
Stream size                    : 437 MiB (6%)
Language                       : English
Service kind                   : Complete Main
Default                        : Yes
Forced                         : No

Text
ID                             : 3
Format                         : UTF-8
Codec ID                       : S_TEXT/UTF8
Codec ID/Info                  : UTF-8 Plain Text
Duration                       : 1 h 35 min
Bit rate                       : 94 b/s
Count of elements              : 1961
Stream size                    : 65.9 KiB (0%)
Title                          : English (SDH)
Language                       : English
Default                        : No
Forced                         : No


American Pie Presents: Girls Rules 2020 1080p AMZN WEB-DL DDP5.1 H.264-TOMMY screenshots American Pie Presents: Girls Rules 2020 1080p AMZN WEB-DL DDP5.1 H.264-TOMMY screenshots American Pie Presents: Girls Rules 2020 1080p AMZN WEB-DL DDP5.1 H.264-TOMMY screenshots American Pie Presents: Girls Rules 2020 1080p AMZN WEB-DL DDP5.1 H.264-TOMMY screenshots American Pie Presents: Girls Rules 2020 1080p AMZN WEB-DL DDP5.1 H.264-TOMMY screenshots American Pie Presents: Girls Rules 2020 1080p AMZN WEB-DL DDP5.1 H.264-TOMMY screenshots


TitleAl-motasaul
Year1983
GenreAction
Rating6.6 (538 votes)
PlotHassanein is a poor illiterate man who leaves his village and moves to the city to live with his maternal uncle and his family. However, he fails to keep a job and has no choice but to return to his hometown, and while he is sleeping in a mosque, a strange man named Khalil takes him to a shelter where there is food and drink for the homeless. Hassanein discovers that he is staying with a gang that forces poor people to beg in the streets after they are maimed for life. As the gang members try…
DirectorAhmad El-Sabawi
CastsAdel Emam / Essad Youniss / Zakaria Mouafi / Sayed Zayan / Wahid Seif…
Runtime120 min
Al-motasaul

No keyword! (Click to edit!)

Perfetti sconosciuti 2016 720p BluRay DD5.1 x264-VietHD21 Ways to Ruin a Marriage 2013 720p Bluray DTS 5.1 x264-SbRBrother of the Year 2018 ViE WEB-DL 1080p AC3 x264Greenberg 2010 720p BluRay DD5 1 x264-EbPThe Rewrite 2014 720p BluRay DD5.1 x264-CRiSCThe Magnificent Scoundrels 1991 ViE BluRay 1080p DTS-HD MA 2 0 x265 10bit-BeiTai