NetHD.org

An Elephant Sitting Still 2018 720p WEB-DL AAC 2.0 H.264

Download An Elephant Sitting Still 2018 720p WEB-DL AAC 2.0 H.264 
Small DescriptionDa xiang xi di er zuo (2018)
Basic Info
Uploaded byAnonymous at 2019-06-13 00:07:55
Action
Social
  • 2
Hot Meter
  • Views: 184
  • Hits: 22
  • Snatched: 15 x time(s)
  • Last Action: 2019-06-17 05:22:43
Peers14 Seeder | 0 Leecher


Giải thưởng Kim Mã lần thứ 55 đã khép lại với Phim điện ảnh xuất sắc nhất thuộc về Chú Voi Ngồi Im Trên Đất (An Elephant Sitting Still) của đạo diễn trẻ Hồ Ba. Ban đầu, lý do để quyết định xem bộ phim này có rất nhiều. Vì Kim Mã, vì đạo diễn Hồ Ba, vì Bành Dục Sướng hay thậm chí chỉ cần thấy độ dài 4 tiếng cho một bộ phim đã đủ khiến một kẻ không thắng được sự tò mò đầu hàng. Dù vì bất kỳ lý do gì, cũng không thể phủ nhận, bộ phim đầu tiên và cũng là cuối cùng của đạo diễn Hồ Ba đã thành công để lại trong lòng người xem những ấn tượng nhất định.

Phim được chuyển thể từ truyện ngắn cùng tên của đạo diễn Hồ Ba, câu chuyện lấy bối cảnh tại một thành phố lạc hậu ở Hà Bắc, xoay quanh quá trình mưu cầu sinh tồn của 4 nhân vật sống trong tận cùng nghèo khổ của xã hội. Vận mệnh của 4 nhân vật trong phim, những đau khổ mà họ trải qua đã trở thành thời cơ để bộ phim vẽ nên bức tranh hiện thực tuyệt vọng, cách đạo diễn Hồ Ba sử dụng khéo léo những cảnh phim dài càng khiến phim bị bao phủ bởi bầu không khí trầm trọng và cực kỳ phong cách hóa, đồng thời dùng thủ pháp đa tuyến song hành mượn bốn con người ở độ tuổi khác nhau đang đứng ở bờ vực cuộc sống, những đau khổ mà họ gánh chịu trong hiện thực tuyệt vọng sẽ bật ra một cách sinh động, đối với thế giới hoang đường, chủ nghĩa tư duy về sự tồn tại đau khổ của đời người.

Đây là phim đầu tay của đạo diễn Hồ Ba và cũng là tác phẩm cuối cùng của anh, bởi anh đã tự vẫn vào ngày 12-10-2017, trước thời điểm ngày 16-2-2018 khi bộ phim được công chiếu đầu tiên tại Liên hoan phim Berlin lần thứ 68, đồng thời đoạt giải thưởng ở hạng mục FIPRESCI Prizes.



Format : Matroska
Format version : Version 4 / Version 2
File size : 11.0 GiB
Duration : 3 h 50 min
Overall bit rate mode : Variable
Overall bit rate : 6 827 kb/s
Encoded date : UTC 2018-09-09 03:32:41
Writing application : mkvmerge v26.0.0 ('In The Game') 64-bit
Writing library : libebml v1.3.6 + libmatroska v1.4.9

Video
ID : 2
Format : AVC
Format/Info : Advanced Video Codec
Format profile : Main@L3.1
Format settings : CABAC / 2 Ref Frames
Format settings, CABAC : Yes
Format settings, ReFrames : 2 frames
Format settings, GOP : M=2, N=30
Codec ID : V_MPEG4/ISO/AVC
Duration : 3 h 50 min
Bit rate mode : Variable
Bit rate : 6 575 kb/s
Maximum bit rate : 768 kb/s
Width : 1 280 pixels
Height : 720 pixels
Display aspect ratio : 16:9
Frame rate mode : Constant
Frame rate : 24.000 FPS
Original frame rate : 25.000 FPS
Color space : YUV
Chroma subsampling : 4:2:0
Bit depth : 8 bits
Scan type : Progressive
Bits/(Pixel*Frame) : 0.297
Stream size : 10.6 GiB (96%)
Language : Chinese
Default : Yes
Forced : No
Color range : Limited
Color primaries : BT.709
Transfer characteristics : BT.709
Matrix coefficients : BT.709

Audio
ID : 1
Format : AAC
Format/Info : Advanced Audio Codec
Format profile : LC
Codec ID : A_AAC-2
Duration : 3 h 50 min
Bit rate : 249 kb/s
Channel(s) : 2 channels
Channel positions : Front: L R
Sampling rate : 48.0 kHz
Frame rate : 46.875 FPS (1024 SPF)
Compression mode : Lossy
Stream size : 412 MiB (4%)
Language : Chinese
Default : No
Forced : No

An Elephant Sitting Still 2018 720p WEB-DL AAC 2.0 H.264 screenshots An Elephant Sitting Still 2018 720p WEB-DL AAC 2.0 H.264 screenshots An Elephant Sitting Still 2018 720p WEB-DL AAC 2.0 H.264 screenshots An Elephant Sitting Still 2018 720p WEB-DL AAC 2.0 H.264 screenshots An Elephant Sitting Still 2018 720p WEB-DL AAC 2.0 H.264 screenshots An Elephant Sitting Still 2018 720p WEB-DL AAC 2.0 H.264 screenshots An Elephant Sitting Still 2018 720p WEB-DL AAC 2.0 H.264 screenshots An Elephant Sitting Still 2018 720p WEB-DL AAC 2.0 H.264 screenshots An Elephant Sitting Still 2018 720p WEB-DL AAC 2.0 H.264 screenshots An Elephant Sitting Still 2018 720p WEB-DL AAC 2.0 H.264 screenshots An Elephant Sitting Still 2018 720p WEB-DL AAC 2.0 H.264 screenshots An Elephant Sitting Still 2018 720p WEB-DL AAC 2.0 H.264 screenshots An Elephant Sitting Still 2018 720p WEB-DL AAC 2.0 H.264 screenshots An Elephant Sitting Still 2018 720p WEB-DL AAC 2.0 H.264 screenshots An Elephant Sitting Still 2018 720p WEB-DL AAC 2.0 H.264 screenshots 
TitleDa xiang xi di er zuo
Year2018
GenreDrama
Rating7.9 (2,010 votes)
PlotIn the northern Chinese city of Manzhouli, they say there is an elephant that simply sits and ignores the world. Manzhouli becomes an obsession for the protagonists of this film, a longed-for escape from the downward spiral in which they find themselves. Among them is schoolboy Bu, on the run after pushing Shuai down the stairs, who was bullying him previously. Bu's classmate Ling has run away from her mother and fallen for the charms of her teacher. Shuai's older brother Cheng feels…
DirectorBo Hu
CastsYu Zhang,Yuchang Peng,Uvin Wang,Congxi Li,Xiang Rong Dong…
Runtime230 min
Da xiang xi di er zuo


The Past Imperfect 2016 1080p WEB-DL AAC x264-TTGC'est Si Bon 2015 mHD BluRay DD5.1 x264-TRiMClose Encounters of the Third Kind CE 1977 720p BluRay DD5.1 x264-CtrlHDLoin des hommes 2014 mHD BluRay DD5.1 x264-TRiMThe Theory of Everything 2014 720p BluRay DD5.1 x264-CtrlHDObsessed 2014 mHD BluRay DD5.1 x264-TRiM

Only members can create comment.