An Extremely Goofy Movie 2000 1080p AMZN WEB-DL DD+5.1 x264-SiGMA

Download An Extremely Goofy Movie 2000 1080p AMZN WEB-DL DD+5.1 x264-SiGMA 
Small DescriptionIt's a big time in Max's life. He's college bound with his friends and finally free of his embarrassing father as he strives to be a top contender for the X-Games. Unfortunately, Goofy loses his job and learns that he cannot get another job without a college degree. To his son's mortification, Goofy decides to join him in his campus to get that degree. Desperate to distract his father, Max talks him into joining the competing Gamma Fraternity team and introduces him to a wonderful librarian who…
Basic Info
Uploaded byAnonymous at 2018-04-16 17:26:19
Action
Social
  • 2
Hot Meter
  • Views: 253
  • Hits: 10
  • Snatched: 4 x time(s)
  • Last Action: 2018-09-20 18:21:19
Peers0 Seeder | 1 Leecher
An Extremely Goofy Movie 2000 1080p AMZN WEB-DL DD+5.1 x264-SiGMA screenshots











An Extremely Goofy Movie 2000 1080p AMZN WEB-DL DD+5.1 x264-SiGMA screenshots


General
Unique ID                                : 111620567133843826031007492906444509574 (0x53F956DA167948DE136847154351D186)
Complete name                            : J:\An.Extremely.Goofy.Movie.2000.1080p.AMZN.WEB-DL.DD+5.1.H264-SiGMA.mkv
Format                                   : Matroska
Format version                           : Version 4 / Version 2
File size                                : 2.89 GiB
Duration                                 : 1 h 18 min
Overall bit rate mode                    : Variable
Overall bit rate                         : 5 235 kb/s
Encoded date                             : UTC 2018-04-15 08:02:11
Writing application                      : mkvmerge v19.0.0 ('Brave Captain') 64-bit
Writing library                          : libebml v1.3.5 + libmatroska v1.4.8

Video
ID                                       : 1
Format                                   : AVC
Format/Info                              : Advanced Video Codec
Format profile                           : High@L4
Format settings, CABAC                   : Yes
Format settings, ReFrames                : 4 frames
Codec ID                                 : V_MPEG4/ISO/AVC
Duration                                 : 1 h 18 min
Bit rate mode                            : Variable
Bit rate                                 : 4 593 kb/s
Maximum bit rate                         : 15.0 Mb/s
Width                                    : 1 920 pixels
Height                                   : 1 080 pixels
Display aspect ratio                     : 16:9
Frame rate mode                          : Constant
Frame rate                               : 23.976 (24000/1001) FPS
Color space                              : YUV
Chroma subsampling                       : 4:2:0
Bit depth                                : 8 bits
Scan type                                : Progressive
Bits/(Pixel*Frame)                       : 0.092
Stream size                              : 2.53 GiB (88%)
Writing library                          : x264 core 148 r2623 d5b2374
Encoding settings                        : cabac=1 / ref=4 / deblock=1:-1:-1 / analyse=0x3:0x133 / me=umh / subme=9 / psy=1 / psy_rd=1.00:0.15 / mixed_ref=1 / me_range=24 / chroma_me=1 / trellis=2 / 8x8dct=1 / cqm=0 / deadzone=21,11 / fast_pskip=1 / chroma_qp_offset=-3 / threads=34 / lookahead_threads=5 / sliced_threads=0 / nr=150 / decimate=1 / interlaced=0 / bluray_compat=0 / constrained_intra=0 / bframes=8 / b_pyramid=2 / b_adapt=2 / b_bias=0 / direct=3 / weightb=1 / open_gop=0 / weightp=2 / keyint=120 / keyint_min=61 / scenecut=0 / intra_refresh=0 / rc_lookahead=120 / rc=crf / mbtree=1 / crf=18.0 / qcomp=0.60 / qpmin=0 / qpmax=69 / qpstep=4 / vbv_maxrate=15000 / vbv_bufsize=31250 / crf_max=0.0 / nal_hrd=vbr / filler=0 / ip_ratio=1.40 / aq=3:1.00
Default                                  : Yes
Forced                                   : No
Color range                              : Limited
Color primaries                          : BT.709
Transfer characteristics                 : BT.709
Matrix coefficients                      : BT.709

Audio
ID                                       : 2
Format                                   : E-AC-3
Format/Info                              : Enhanced Audio Coding 3
Format settings, Endianness              : Big
Codec ID                                 : A_EAC3
Duration                                 : 1 h 18 min
Bit rate mode                            : Constant
Bit rate                                 : 640 kb/s
Channel(s)                               : 6 channels
Channel positions                        : Front: L C R, Side: L R, LFE
Sampling rate                            : 48.0 kHz
Frame rate                               : 187.500 FPS (256 spf)
Compression mode                         : Lossy
Stream size                              : 361 MiB (12%)
Language                                 : English
Service kind                             : Complete Main
Default                                  : Yes
Forced                                   : No

Text
ID                                       : 3
Format                                   : UTF-8
Codec ID                                 : S_TEXT/UTF8
Codec ID/Info                            : UTF-8 Plain Text
Duration                                 : 1 h 18 min
Bit rate                                 : 69 b/s
Count of elements                        : 1141
Stream size                              : 39.9 KiB (0%)
Language                                 : English
Default                                  : No
Forced                                   : No

Menu
00:00:00.000                             : en:Scene 1
00:02:51.000                             : en:Scene 2
00:05:04.000                             : en:Scene 3
00:07:13.000                             : en:Scene 4
00:09:19.000                             : en:Scene 5
00:10:50.000                             : en:Scene 6
00:13:08.000                             : en:Scene 7
00:15:15.000                             : en:Scene 8
00:16:26.000                             : en:Scene 9
00:20:50.000                             : en:Scene 10
00:21:44.000                             : en:Scene 11
00:22:54.000                             : en:Scene 12
00:25:00.000                             : en:Scene 13
00:26:37.000                             : en:Scene 14
00:30:44.000                             : en:Scene 15
00:33:55.000                             : en:Scene 16
00:37:56.000                             : en:Scene 17
00:39:09.000                             : en:Scene 18
00:40:32.000                             : en:Scene 19
00:45:53.000                             : en:Scene 20
00:49:44.000                             : en:Scene 21
00:50:59.000                             : en:Scene 22
00:53:58.000                             : en:Scene 23
00:55:37.000                             : en:Scene 24
00:57:03.000                             : en:Scene 25
00:59:22.000                             : en:Scene 26
01:04:22.000                             : en:Scene 27
01:11:07.000                             : en:Scene 28
01:13:10.000                             : en:Scene 29











An Extremely Goofy Movie 2000 1080p AMZN WEB-DL DD+5.1 x264-SiGMA screenshots


An Extremely Goofy Movie 2000 1080p AMZN WEB-DL DD+5.1 x264-SiGMA screenshotsAn Extremely Goofy Movie 2000 1080p AMZN WEB-DL DD+5.1 x264-SiGMA screenshotsAn Extremely Goofy Movie 2000 1080p AMZN WEB-DL DD+5.1 x264-SiGMA screenshots
An Extremely Goofy Movie 2000 1080p AMZN WEB-DL DD+5.1 x264-SiGMA screenshotsAn Extremely Goofy Movie 2000 1080p AMZN WEB-DL DD+5.1 x264-SiGMA screenshotsAn Extremely Goofy Movie 2000 1080p AMZN WEB-DL DD+5.1 x264-SiGMA screenshots

TitleAn Extremely Goofy Movie
Year2000
Genre
Rating6.4 (7,634 votes)
PlotIt's a big time in Max's life. He's college bound with his friends and finally free of his embarrassing father as he strives to be a top contender for the X-Games. Unfortunately, Goofy loses his job and learns that he cannot get another job without a college degree. To his son's mortification, Goofy decides to join him in his campus to get that degree. Desperate to distract his father, Max talks him into joining the competing Gamma Fraternity team and introduces him to a wonderful librarian who…
DirectorDouglas McCarthy
CastsBill Farmer,Jason Marsden,Jeff Bennett,Jim Cummings,Brad Garrett…
Runtime79 min
Genres
An Extremely Goofy Movie


Tags

Other releases

Same genre with An Extremely Goofy Movie 2000 1080p AMZN WEB-DL DD+5.1 x264-SiGMA

Pom Poko 1994 720p BluRay x264-TayTO Appleseed Alpha 2014 ViE mHD BluRay DD5.1 x264-EPiKThe Emoji Movie 2017 mHD BluRay DD5.1 x264-TRiMDespicable Me 3 2017 720p BluRay DD5.1 x264-TayTOPokémon / Pocket Monsters: Odoru Pokémon Himitsu Kichi (2003) R2J NTSC DVD5Easter Yeggs 1947 720p BluRay DD1.0 x264-EbP

Comment for An Extremely Goofy Movie 2000 1080p AMZN WEB-DL DD+5.1 x264-SiGMA

Only members can create comment.