Inbound Troubles TVB 2013 (20 Tập) 720p (FFVN)

Download Inbound Troubles TVB 2013 (20 Tập) 720p (FFVN) 
Small DescriptionAnh Họ Quái Chiêu
Basic Info
Uploaded bytanhung238 (HAH) at 2013-02-23 23:48:56
Action
Social
  • 53
Hot Meter
  • Views: 2860
  • Hits: 334
  • Snatched: 138 x time(s)
  • Last Action: 2018-09-30 10:33:14
Peers0 Seeder | 0 Leecher
Anh Họ Quái Chiêu - Inbound Troubles

Inbound Troubles TVB 2013 (20 Tập) 720p (FFVN) screenshots

General
Unique ID                      : 232313012239056591167680818011195154198 (0xAEC5DBD21285D8ACBAF244EBB7959F16)
Complete name                  : O:\Phim Bo 20-10-2011\Anh Họ Quái Chiêu - Inbound Troubles TVB 2013 620 USLT (20 Tap) 720p FFVN\AnhHoQuaiChieu.Ep01.720.mkv
Format                         : Matroska
Format version                 : Version 2
File size                      : 1.37 GiB
Duration                       : 44mn 15s
Overall bit rate               : 4 429 Kbps
Encoded date                   : UTC 2013-02-20 18:33:24
Writing application            : mkvmerge v5.6.0 ('Kenya Kane') built on May 27 2012 16:44:04
Writing library                : libebml v1.2.3 + libmatroska v1.3.0

Video
ID                             : 1
Format                         : AVC
Format/Info                    : Advanced Video Codec
Format profile                 : High@L3.1
Format settings, CABAC         : Yes
Format settings, ReFrames      : 3 frames
Muxing mode                    : Header stripping
Codec ID                       : V_MPEG4/ISO/AVC
Duration                       : 44mn 15s
Bit rate                       : 4 200 Kbps
Width                          : 1 280 pixels
Height                         : 720 pixels
Display aspect ratio           : 16:9
Frame rate                     : 25.000 fps
Color space                    : YUV
Chroma subsampling             : 4:2:0
Bit depth                      : 8 bits
Scan type                      : Progressive
Bits/(Pixel*Frame)             : 0.182
Stream size                    : 1.28 GiB (94%)
Writing library                : x264 core 125 r2200 999b753
Encoding settings              : cabac=1 / ref=3 / deblock=1:0:0 / analyse=0x3:0x113 / me=hex / subme=7 / psy=1 / psy_rd=1.00:0.00 / mixed_ref=1 / me_range=16 / chroma_me=1 / trellis=1 / 8x8dct=1 / cqm=0 / deadzone=21,11 / fast_pskip=1 / chroma_qp_offset=-2 / threads=12 / lookahead_threads=2 / sliced_threads=0 / nr=0 / decimate=1 / interlaced=0 / bluray_compat=0 / constrained_intra=0 / bframes=3 / b_pyramid=0 / b_adapt=1 / b_bias=0 / direct=1 / weightb=1 / open_gop=0 / weightp=2 / keyint=250 / keyint_min=25 / scenecut=40 / intra_refresh=0 / rc_lookahead=40 / rc=abr / mbtree=1 / bitrate=4200 / ratetol=1.0 / qcomp=0.60 / qpmin=10 / qpmax=51 / qpstep=4 / ip_ratio=1.40 / aq=1:1.00
Language                       : English
Default                        : Yes
Forced                         : No

Audio
ID                             : 2
Format                         : AC-3
Format/Info                    : Audio Coding 3
Mode extension                 : CM (complete main)
Muxing mode                    : Header stripping
Codec ID                       : A_AC3
Duration                       : 44mn 15s
Bit rate mode                  : Constant
Bit rate                       : 192 Kbps
Channel(s)                     : 2 channels
Channel positions              : Front: L R
Sampling rate                  : 48.0 KHz
Bit depth                      : 16 bits
Compression mode               : Lossy
Stream size                    : 60.8 MiB (4%)
Default                        : Yes
Forced                         : No


Inbound Troubles TVB 2013 (20 Tập) 720p (FFVN) screenshots

Inbound Troubles TVB 2013 (20 Tập) 720p (FFVN) screenshots

Tư Mã Thục Trinh (Thang Doanh Doanh) lợi dụng tình nhân Ngô Gia Nghi (Quách Tấn An) cùng mở một văn phòng lữ hành để kiếm tiền trả nợ nên khiến anh bị phá sản. Gia Nghi phát hiện cô phản bội mình và yêu Trình Thiểu San (Lâm Thịnh Bân) là người bạn chí thân của Gia Nghi.

Em họ Gia Nghi là Thái Tâm (Vương Tổ Lam) vượt biên từ Đông Quan Đại Lục đến HongKong để thực hiện giấc mộng làm ca sĩ. Để giúp Thái Tâm định cư, Gia Nghi quyết định nhờ Dịch Tuyết Phi (Vạn Ỷ Văn) là một nhân viên cán sự xã hội về di dân mới ra trường và giữa họ đã nẩy sinh giao tình sâu đậm.

Mộng Lộ (Chu Mễ Mễ) là một ca sĩ về chiều chuyên hát dạo để kiếm ăn qua ngày. Cô là người vợ bất hạnh vì bị chồng hắt hủi phải bỏ nhà, bỏ con nhỏ để ra đi lưu lạc.

Cùng lúc đó, em gái của Gia Nghi là Ngô Chi Tình (Vương Uyển Chi) vừa mới học xong Cao Học tại Đài Loan và về lại Hong Kong. Các nhân vật trong phim có quá nhiều khác biệt về văn hóa và lối sống nên sự va chạm giữa họ đã làm nên nhiều cảnh hài hước thú vị.

Cuối cùng hai mẹ con Mộng Lộ và Thái Tâm cũng nhận ra nhau và đoàn tụ vui vẻ. Kết thúc có hậu giúp Gia Nghi lấy lại được lòng tin vào chính bản thân của mình...




Tags

Other releases

Same genre with Inbound Troubles TVB 2013 (20 Tập) 720p (FFVN)

Stranger Things S01 720p WEBRip DD5.1 x264-NTbThe Player S01 720p WEB-DL DD5.1 H264-NTbTaboo UK S01E04 720p HDTV DD5.1 x264-ORGANiCLaw and Order SVU S17E19 720p HDTV x264-FLEETBlue Bloods S06E08 720p HDTV X264-DIMENSIONGrowing Pains S01-S07 Complete 1985-1992 DVDRip DD2.0

Comment for Inbound Troubles TVB 2013 (20 Tập) 720p (FFVN)

Only members can create comment.