Ant-Man and the Wasp 2018 1080p BluRay AVC DD5.1

Download Ant-Man and the Wasp 2018 1080p BluRay AVC DD5.1 Free
Small DescriptionIn the aftermath of Captain America: Civil War (2016), Scott Lang grapples with the consequences of his choices as both a superhero and a father. As he struggles to rebalance his home life with his responsibilities as Ant-Man, he's confronted by Hope van Dyne and Dr. Hank Pym with an urgent new mission. Scott must once again put on the suit and learn to fight alongside The Wasp as the team works together to uncover secrets from their past. Written by Walt Disney Studios
Basic Info
Uploaded byAnonymous at 2018-10-07 10:07:51
Action
Social
  • 1
Hot Meter
  • Views: 122
  • Hits: 21
  • Snatched: 7 x time(s)
  • Last Action: 2018-10-23 19:42:22
Peers4 Seeder | 0 Leecher
Ant-Man and the Wasp 2018 1080p BluRay AVC DD5.1 screenshots














Ant-Man and the Wasp 2018 1080p BluRay AVC DD5.1 screenshots


General
Unique ID                                : 122148748705184175199609466584348335630 (0x5BE4FE479A5C1793D04F1CED0CA99E0E)
Complete name                            : F:\MOVIE\Человек-муравей и Оса_Ant-Man and the Wasp.2018.BDRemux.1080p.NNMClub.mkv
Format                                   : Matroska
Format version                           : Version 4 / Version 2
File size                                : 30.6 GiB
Duration                                 : 1 h 58 min
Overall bit rate mode                    : Variable
Overall bit rate                         : 36.9 Mb/s
Movie name                               : Человек-муравей и Оса_Ant-Man and the Wasp.2018.BDRemux.1080p.NNMClub
Encoded date                             : UTC 2018-10-06 05:22:47
Writing application                      : mkvmerge v27.0.0 ('Metropolis') 64-bit
Writing library                          : libebml v1.3.6 + libmatroska v1.4.9

Video
ID                                       : 1
Format                                   : AVC
Format/Info                              : Advanced Video Codec
Format profile                           : High@L4.1
Format settings                          : CABAC / 4 Ref Frames
Format settings, CABAC                   : Yes
Format settings, RefFrames               : 4 frames
Format settings, GOP                     : M=3, N=12
Codec ID                                 : V_MPEG4/ISO/AVC
Duration                                 : 1 h 58 min
Bit rate mode                            : Variable
Bit rate                                 : 31.7 Mb/s
Maximum bit rate                         : 34.5 Mb/s
Width                                    : 1 920 pixels
Height                                   : 1 080 pixels
Display aspect ratio                     : 16:9
Frame rate mode                          : Constant
Frame rate                               : 23.976 (24000/1001) FPS
Color space                              : YUV
Chroma subsampling                       : 4:2:0
Bit depth                                : 8 bits
Scan type                                : Progressive
Bits/(Pixel*Frame)                       : 0.638
Stream size                              : 26.2 GiB (86%)
Title                                    : Человек-муравей и Оса_Ant-Man and the Wasp.2018.BDRemux.1080p.NNMClub
Language                                 : English
Default                                  : No
Forced                                   : No

Audio #1
ID                                       : 2
Format                                   : AC-3
Format/Info                              : Audio Coding 3
Codec ID                                 : A_AC3
Duration                                 : 1 h 58 min
Bit rate mode                            : Constant
Bit rate                                 : 384 kb/s
Channel(s)                               : 6 channels
Channel positions                        : Front: L C R, Side: L R, LFE
Sampling rate                            : 48.0 kHz
Frame rate                               : 31.250 FPS (1536 SPF)
Bit depth                                : 16 bits
Compression mode                         : Lossy
Stream size                              : 326 MiB (1%)
Title                                    : Дублированный (iTunes)
Language                                 : Russian
Service kind                             : Complete Main
Default                                  : Yes
Forced                                   : No

Audio #2
ID                                       : 3
Format                                   : AC-3
Format/Info                              : Audio Coding 3
Codec ID                                 : A_AC3
Duration                                 : 1 h 58 min
Bit rate mode                            : Constant
Bit rate                                 : 160 kb/s
Channel(s)                               : 2 channels
Channel positions                        : Front: L R
Sampling rate                            : 44.1 kHz
Frame rate                               : 28.711 FPS (1536 SPF)
Bit depth                                : 16 bits
Compression mode                         : Lossy
Stream size                              : 136 MiB (0%)
Title                                    : Тифлокомментарии (iTunes)
Language                                 : Russian
Service kind                             : Complete Main
Default                                  : No
Forced                                   : No

Audio #3
ID                                       : 4
Format                                   : DTS
Format/Info                              : Digital Theater Systems
Format profile                           : MA / Core
Codec ID                                 : A_DTS
Duration                                 : 1 h 58 min
Bit rate mode                            : Variable / Constant
Bit rate                                 : 4 788 kb/s / 1 509 kb/s
Channel(s)                               : 8 channels / 6 channels
Channel positions                        : Front: L C R, Side: L R, Back: L R, LFE / Front: L C R, Side: L R, LFE
Sampling rate                            : 48.0 kHz
Frame rate                               : 93.750 FPS (512 SPF)
Bit depth                                : 24 bits
Compression mode                         : Lossless / Lossy
Stream size                              : 3.95 GiB (13%)
Language                                 : English
Default                                  : No
Forced                                   : No

Text #1
ID                                       : 5
Format                                   : UTF-8
Codec ID                                 : S_TEXT/UTF8
Codec ID/Info                            : UTF-8 Plain Text
Duration                                 : 1 h 54 min
Bit rate                                 : 0 b/s
Count of elements                        : 6
Stream size                              : 337 Bytes (0%)
Title                                    : Forced (iTunes)
Language                                 : Russian
Default                                  : Yes
Forced                                   : No

Text #2
ID                                       : 6
Format                                   : UTF-8
Codec ID                                 : S_TEXT/UTF8
Codec ID/Info                            : UTF-8 Plain Text
Duration                                 : 1 h 57 min
Bit rate                                 : 103 b/s
Count of elements                        : 2152
Stream size                              : 89.7 KiB (0%)
Title                                    : Full  (iTunes)
Language                                 : Russian
Default                                  : No
Forced                                   : No

Text #3
ID                                       : 7
Format                                   : UTF-8
Codec ID                                 : S_TEXT/UTF8
Codec ID/Info                            : UTF-8 Plain Text
Duration                                 : 1 h 54 min
Bit rate                                 : 0 b/s
Count of elements                        : 6
Stream size                              : 337 Bytes (0%)
Title                                    : SDH (iTunes)
Language                                 : Russian
Default                                  : No
Forced                                   : No

Text #4
ID                                       : 8
Format                                   : UTF-8
Codec ID                                 : S_TEXT/UTF8
Codec ID/Info                            : UTF-8 Plain Text
Duration                                 : 1 h 50 min
Bit rate                                 : 113 b/s
Count of elements                        : 2064
Stream size                              : 92.3 KiB (0%)
Title                                    : Full
Language                                 : Russian
Default                                  : No
Forced                                   : No

Text #5
ID                                       : 9
Format                                   : UTF-8
Codec ID                                 : S_TEXT/UTF8
Codec ID/Info                            : UTF-8 Plain Text
Duration                                 : 1 h 57 min
Bit rate                                 : 68 b/s
Count of elements                        : 2136
Stream size                              : 59.2 KiB (0%)
Language                                 : English
Default                                  : No
Forced                                   : No

Menu
00:00:00.000                             : en:00:00:00.000
00:04:03.034                             : en:00:04:03.034
00:10:16.407                             : en:00:10:16.407
00:13:39.861                             : en:00:13:39.861
00:21:25.451                             : en:00:21:25.451
00:29:07.829                             : en:00:29:07.829
00:36:09.084                             : en:00:36:09.084
00:40:56.579                             : en:00:40:56.579
00:50:17.431                             : en:00:50:17.431
00:58:59.077                             : en:00:58:59.077
01:04:56.434                             : en:01:04:56.434
01:12:54.287                             : en:01:12:54.287
01:18:32.124                             : en:01:18:32.124
01:24:44.913                             : en:01:24:44.913
01:29:47.340                             : en:01:29:47.340
01:36:16.270                             : en:01:36:16.270
01:43:35.334                             : en:01:43:35.334
01:46:59.830                             : en:01:46:59.830













Ant-Man and the Wasp 2018 1080p BluRay AVC DD5.1 screenshots


Ant-Man and the Wasp 2018 1080p BluRay AVC DD5.1 screenshotsAnt-Man and the Wasp 2018 1080p BluRay AVC DD5.1 screenshotsAnt-Man and the Wasp 2018 1080p BluRay AVC DD5.1 screenshots
Ant-Man and the Wasp 2018 1080p BluRay AVC DD5.1 screenshotsAnt-Man and the Wasp 2018 1080p BluRay AVC DD5.1 screenshotsAnt-Man and the Wasp 2018 1080p BluRay AVC DD5.1 screenshots

TitleNguoi Kien & Chien Binh Ong
Year2018
Genre
Rating7.2 (127,583 votes)
PlotIn the aftermath of Captain America: Civil War (2016), Scott Lang grapples with the consequences of his choices as both a superhero and a father. As he struggles to rebalance his home life with his responsibilities as Ant-Man, he's confronted by Hope van Dyne and Dr. Hank Pym with an urgent new mission. Scott must once again put on the suit and learn to fight alongside The Wasp as the team works together to uncover secrets from their past. Written by Walt Disney Studios
DirectorPeyton Reed
CastsPaul Rudd,Evangeline Lilly,Michael Peña,Walton Goggins,Bobby Cannavale…
Runtime118 min
Genres
Nguoi Kien & Chien Binh Ong


Tags

Other releases

Same genre with Ant-Man and the Wasp 2018 1080p BluRay AVC DD5.1

The Big Bang 2011 720p Bluray x264-DON Enter The Ninja 1981 720p BluRay FLAC x264-CtrlHDRonin 1998 1080p BluRay DD5.1 x264-SA89Game of Death 2010 Bluray 720p x264-DONHe's Out There 2018 1080p BluRay DD2.0 x264 Total Recall 2012 720p BluRay DD5.1 x264-ThD

Comment for Ant-Man and the Wasp 2018 1080p BluRay AVC DD5.1

Only members can create comment.