NetHD.org

Barbie Dreamhouse Adventures Season 2 ViEDUB 2018 1080p NF WEB-DL DD5.1

Download Barbie Dreamhouse Adventures Season 2 ViEDUB 2018 1080p NF WEB-DL DD5.1 
Small DescriptionLồng tiếng chuẩn BARBIE: CUỘC PHIÊU LƯU TRONG NGÔI NHÀ MƠ ƯỚC 2
Basic Info
Uploaded byxwx76162 (Power User) at 2019-04-15 18:51:04
Action
Social
  • 3
Hot Meter
  • Views: 142
  • Hits: 44
  • Snatched: 31 x time(s)
  • Last Action: 2019-06-18 15:12:24
Peers3 Seeder | 0 Leecher


Phần 3 đã cập nhật
Phim xoay quanh cuộc sống thường nhật của Barbie: Chuyển nhà, Những người bạn tuyệt vời nhất, Sự nhạy cảm về thời trang, Chụp ảnh selfie, Mùa hè đã đến, Đồ ăn, Chơi nhạc cụ, Nhảy nhót và khiêu vũ, Cầu thang hay cầu trượt?, Những chú cún đáng yêu

tham gia cuộc phiêu lưu thú vị trong thế giới của Barbie, nơi mọi thứ đều có thể thực hiện được!

Format                      : MPEG-4
Format profile              : Base Media
Codec ID                    : isom (isom/iso2/avc1/mp41)
File size                   : 689 MiB
Duration                    : 22 min 58 s
Overall bit rate            : 4 196 kb/s

Video
ID                          : 1
Format                      : AVC
Format/Info                 : Advanced Video Codec
Format profile              : Main@L4
Format settings             : CABAC / 3 Ref Frames
Format settings, CABAC      : Yes
Format settings, ReFrames   : 3 frames
Codec ID                    : avc1
Codec ID/Info               : Advanced Video Coding
Duration                    : 22 min 58 s
Bit rate                    : 3 805 kb/s
Width                       : 1 920 pixels
Height                      : 1 080 pixels
Display aspect ratio        : 16:9
Frame rate mode             : Constant
Frame rate                  : 23.976 FPS
Color space                 : YUV
Chroma subsampling          : 4:2:0
Bit depth                   : 8 bits
Scan type                   : Progressive
Bits/(Pixel*Frame)          : 0.077
Stream size                 : 625 MiB (91%)
Codec configuration box     : avcC


Audio
ID                          : 2
Format                      : AC-3
Format/Info                 : Audio Coding 3
Commercial name             : Dolby Digital
Codec ID                    : ac-3
Duration                    : 22 min 58 s
Bit rate mode               : Constant
Bit rate                    : 384 kb/s
Channel(s)                  : 6 channels
Channel layout              : L R C LFE Ls Rs
Sampling rate               : 48.0 kHz
Frame rate                  : 31.250 FPS (1536 SPF)
Bit depth                   : 16 bits
Compression mode            : Lossy
Stream size                 : 63.1 MiB (9%)
Language                    : Vietnamese
Service kind                : Complete Main
Default                     : Yes
Alternate group             : 1
Barbie Dreamhouse Adventures Season 2 ViEDUB 2018 1080p NF WEB-DL DD5.1 screenshots
Barbie Dreamhouse Adventures Season 2 ViEDUB 2018 1080p NF WEB-DL DD5.1 screenshots
Barbie Dreamhouse Adventures Season 2 ViEDUB 2018 1080p NF WEB-DL DD5.1 screenshots
Barbie Dreamhouse Adventures Season 2 ViEDUB 2018 1080p NF WEB-DL DD5.1 screenshots
TitleBarbie Dreamhouse Adventures
Year2018
Genre
Rating6.9 (149 votes)
Plotn/A
Directorn/A
CastsAmerica Young,Cassidy Naber,Kirsten Day,Cassandra Lee Morris,Ritesh Rajan…
Runtime22 min
Barbie Dreamhouse Adventures


Heavy Object 2015 720p HDTV AAC2.0 x264Lego DC Super Hero Girls: Super-Villain High 2018 1080p WEB-DL DD5.1 H.264-EVOHotel Transylvania 2012 1080p BluRay DTS x264-EbPNeon Genesis Evangelion - The End of Evangelion (1997) 1080p Remux AVC FLAC 5.1 Tonari no Totoro 1988 720p BluRay FLAC x264-ChotabIce Age: Collision Course 2016 mHD BluRay DD5.1 x264-TRiM

Only members can create comment.