NetHD.org

BBC - Earth: The Power of the Planet 2007 1080i GBR 2-Disc Blu-ray VC-1 HR DTS-HD MA 5.1-VEXHD

Download BBC - Earth: The Power of the Planet 2007 1080i GBR 2-Disc Blu-ray VC-1 HR DTS-HD MA 5.1-VEXHD 
Small DescriptionIn each episode, geologist Dr. Iain Stewart explains the effects and importance of a specific force of nature, such as wind or volcanism. He also examines the various ways in which it ...
Basic Info
Uploaded byAnonymous at 2018-12-06 13:53:20
Action
Social
  • 3
Hot Meter
  • Views: 296
  • Hits: 24
  • Snatched: 8 x time(s)
  • Last Action: 2019-05-24 07:28:24
Peers0 Seeder | 1 Leecher


BBC - Earth: The Power of the Planet 2007 1080i GBR 2-Disc Blu-ray VC-1 HR DTS-HD MA 5.1-VEXHD screenshots




Quote
Disc Title:     Disc 1
Disc Size:      43,772,929,836 bytes
Protection:     AACS
BD-Java:        No
BDInfo:         0.5.2

PLAYLIST REPORT:

Name:                   00016.MPLS
Size:                   43,600,478,208 bytes
Length:                 2:57:33 (h:m:s)
Total Bitrate:          32.74 Mbps
Description:            

VIDEO:

Codec                   Bitrate             Description    
-----                   -------             -----------    
VC-1 Video              28582 kbps          1080i / 29.970 fps / 16:9 / Advanced Profile 3

AUDIO:

Codec                           Language        Bitrate         Description    
-----                           --------        -------         -----------    
DTS-HD Audio                    English         2046 kbps       5.1 / 48 kHz / 2046 kbps / 24-bit (DTS Core: 5.1 / 48 kHz / 1509 kbps / 24-bit)
Dolby Digital Audio             English         448 kbps        2.0 / 48 kHz / 448 kbps

SUBTITLES:

Codec                           Language        Bitrate         Description    
-----                           --------        -------         -----------    
Presentation Graphics           English         47.373 kbps                    

FILES:

Name            Time In         Length          Size            Total Bitrate  
----            -------         ------          ----            -------------  
00006.M2TS      0:00:00.000     0:59:16.953     15,043,123,200  33,834          
00013.M2TS      0:59:16.953     0:59:04.941     14,159,370,240  31,954          
00008.M2TS      1:58:21.894     0:59:11.948     14,397,984,768  32,428



Quote
Disc Title:     Disc 2
Disc Size:      23,310,628,200 bytes
Protection:     AACS
BD-Java:        No
BDInfo:         0.5.2

PLAYLIST REPORT:

Name:                   00013.MPLS
Size:                   23,141,382,144 bytes
Length:                 1:57:47 (h:m:s)
Total Bitrate:          26.19 Mbps
Description:            

VIDEO:

Codec                   Bitrate             Description    
-----                   -------             -----------    
VC-1 Video              22308 kbps          1080i / 29.970 fps / 16:9 / Advanced Profile 3

AUDIO:

Codec                           Language        Bitrate         Description    
-----                           --------        -------         -----------    
DTS-HD Audio                    English         2046 kbps       5.1 / 48 kHz / 2046 kbps / 24-bit (DTS Core: 5.1 / 48 kHz / 1509 kbps / 24-bit)
Dolby Digital Audio             English         448 kbps        2.0 / 48 kHz / 448 kbps

SUBTITLES:

Codec                           Language        Bitrate         Description    
-----                           --------        -------         -----------    
Presentation Graphics           English         47.579 kbps                    

FILES:

Name            Time In         Length          Size            Total Bitrate  
----            -------         ------          ----            -------------  
00010.M2TS      0:00:00.000     0:58:47.991     11,577,440,256  26,253          
00011.M2TS      0:58:47.991     0:59:00.003     11,563,941,888  26,13

TitleEarth: The Power of the Planet
Year2007
GenreDocumentary
Rating8.7 (1,850 votes)
PlotIn each episode, geologist Dr. Iain Stewart explains the effects and importance of a specific force of nature, such as wind or volcanism. He also examines the various ways in which it shapes planet earth itself and influences life on it, often in conjunction with other natural forces, and sometimes with lifeforms, as in the 'apocalyptically' grave case of global warming. Written by KGF Vissers
Directorn/A
CastsIain Stewart,Victor Baker,Phil Bland,Bernadette Carrion van Rijn,Brian Fisher…
Runtime60 min
GenresDocumentary
Earth: The Power of the Planet


Kingdom of Plants 2012 1080p Blu-ray Remux AVC DTS 5.1_KhoHDLife Story 2014 1080p BluRay DTS x264-NTbEpisode 3 Equator 2005 Rivers of the Sun mHD BluRay DD2.0 x264-TRiMKhám phá: Hương Cốm SDTV AAC2.0 H.264-NTVSexy Baby 2012 720p HDTV DD5.1 x264-EbPUnder The Sea 3D 2009 ViE 720p BluRay x264-Q&Q

Only members can create comment.