Beautiful Teacher in Torture Hell 1985 JP 1080p BluRay DD5.1 x264-KOOK

Download Beautiful Teacher in Torture Hell 1985 JP 1080p BluRay DD5.1 x264-KOOK 
Small DescriptionCân Nhắc Trước Khi Xem
Basic Info
Uploaded byAnonymous at 2018-12-06 14:02:13
Action
Social
  • 15
Hot Meter
  • Views: 1470
  • Hits: 236
  • Snatched: 170 x time(s)
  • Last Action: 2018-12-17 09:20:04
Peers46 Seeder | 0 Leecher
Beautiful Teacher in Torture Hell 1985 JP 1080p BluRay DD5.1 x264-KOOK screenshots




Quote
General
Unique ID                                : 188935677417353816946930321344307780178 (0x8E23B0184187F7D5BBE5298DBCF5DA52)
Complete name                            : Beautiful Teacher in Torture Hell 1985 JP BluRay 1920x960p x264 AC3-KOOK.mkv
Format                                   : Matroska
Format version                           : Version 4 / Version 2
File size                                : 5.78 GiB
Duration                                 : 1 h 7 min
Overall bit rate                         : 12.3 Mb/s
Movie name                               : kook
Encoded date                             : UTC 2018-04-19 12:47:11
Writing application                      : mkvmerge v9.4.2 ('So High') 64bit
Writing library                          : libebml v1.3.4 + libmatroska v1.4.5
Attachments                              : 正式海报.jpg / fzlbfw.ttf / fzlbjw.ttf

Video
ID                                       : 1
Format                                   : AVC
Format/Info                              : Advanced Video Codec
Format profile                           : High@L4.1
Format settings                          : CABAC / 4 Ref Frames
Format settings, CABAC                   : Yes
Format settings, RefFrames               : 4 frames
Codec ID                                 : V_MPEG4/ISO/AVC
Duration                                 : 1 h 7 min
Bit rate                                 : 11.8 Mb/s
Width                                    : 1 920 pixels
Height                                   : 960 pixels
Display aspect ratio                     : 2.000
Frame rate mode                          : Constant
Frame rate                               : 23.976 (24000/1001) FPS
Color space                              : YUV
Chroma subsampling                       : 4:2:0
Bit depth                                : 8 bits
Scan type                                : Progressive
Bits/(Pixel*Frame)                       : 0.267
Stream size                              : 5.56 GiB (96%)
Title                                    : 环环@HDS
Writing library                          : x264 core 148 r2699+6+41 29a38aa Yuuki [8-bit@4:2:0 X86_64][GCC 5.3.0]
Encoding settings                        : cabac=1 / ref=4 / deblock=1:-3:-3 / analyse=0x3:0x113 / me=umh / subme=11 / psy=1 / fade_compensate=0.00 / psy_rd=1.00:0.05 / mixed_ref=1 / me_range=32 / chroma_me=1 / trellis=2 / 8x8dct=1 / cqm=0 / deadzone=21,11 / fast_pskip=0 / chroma_qp_offset=-2 / threads=24 / lookahead_threads=4 / sliced_threads=0 / nr=0 / decimate=1 / interlaced=0 / bluray_compat=0 / constrained_intra=0 / fgo=0 / bframes=8 / b_pyramid=2 / b_adapt=2 / b_bias=0 / direct=3 / weightb=1 / open_gop=0 / weightp=2 / keyint=250 / keyint_min=23 / scenecut=40 / intra_refresh=0 / rc_lookahead=40 / rc=crf / mbtree=0 / crf=17.9000 / qcomp=0.60 / qpmin=0:0:0 / qpmax=69:69:69 / qpstep=4 / vbv_maxrate=50000 / vbv_bufsize=40000 / crf_max=0.0 / nal_hrd=none / filler=0 / ip_ratio=1.40 / pb_ratio=1.30 / aq=3:0.90
Default                                  : Yes
Forced                                   : No

Audio
ID                                       : 2
Format                                   : AC-3
Format/Info                              : Audio Coding 3
Codec ID                                 : A_AC3
Duration                                 : 1 h 7 min
Bit rate mode                            : Constant
Bit rate                                 : 448 kb/s
Channel(s)                               : 2 channels
Channel positions                        : Front: L R
Sampling rate                            : 48.0 kHz
Frame rate                               : 31.250 FPS (1536 SPF)
Bit depth                                : 16 bits
Compression mode                         : Lossy
Stream size                              : 216 MiB (4%)
Title                                    : Japanese
Language                                 : Japanese
Service kind                             : Complete Main
Default                                  : Yes
Forced                                   : No

Text #1
ID                                       : 3
Format                                   : ASS
Codec ID                                 : S_TEXT/ASS
Codec ID/Info                            : Advanced Sub Station Alpha
Duration                                 : 1 h 7 min
Bit rate                                 : 47 b/s
Count of elements                        : 340
Compression mode                         : Lossless
Stream size                              : 23.5 KiB (0%)
Title                                    : 简体字幕
Language                                 : Chinese
Default                                  : Yes
Forced                                   : No

Text #2
ID                                       : 4
Format                                   : ASS
Codec ID                                 : S_TEXT/ASS
Codec ID/Info                            : Advanced Sub Station Alpha
Duration                                 : 1 h 7 min
Bit rate                                 : 47 b/s
Count of elements                        : 340
Compression mode                         : Lossless
Stream size                              : 23.5 KiB (0%)
Title                                    : 繁体字幕
Language                                 : Chinese
Default                                  : No
Forced                                   : No





Beautiful Teacher in Torture Hell 1985 JP 1080p BluRay DD5.1 x264-KOOK screenshots Beautiful Teacher in Torture Hell 1985 JP 1080p BluRay DD5.1 x264-KOOK screenshots Beautiful Teacher in Torture Hell 1985 JP 1080p BluRay DD5.1 x264-KOOK screenshots

Beautiful Teacher in Torture Hell 1985 JP 1080p BluRay DD5.1 x264-KOOK screenshots Beautiful Teacher in Torture Hell 1985 JP 1080p BluRay DD5.1 x264-KOOK screenshots Beautiful Teacher in Torture Hell 1985 JP 1080p BluRay DD5.1 x264-KOOK screenshots

TitleDan Oniroku: Bikyoshi jigokuzeme
Year1985
GenreHorror
Rating5.5 (256 votes)
Plotn/A
DirectorMasahito Segawa
CastsRan Masaki,Seiichirô Fukuyama,Nobutaka Masutomi,Saori Mizuno,Hiroshi Nawa…
Runtime67 min
GenresHorror
Dan Oniroku: Bikyoshi jigokuzeme


Tags

Other releases

Same genre with Beautiful Teacher in Torture Hell 1985 JP 1080p BluRay DD5.1 x264-KOOK

Punch 2011 720p BluRay DD5.1 x264-EbPPick-up 1975 1080p Blu-ray AVC DTS-HD MA 1.0-TIKStoker 2013 1080p Blu-Ray AVC DTS-HD MA 5.1-CHDBits7 Days in Havana 2012 mHD BluRay DD5.1 x264-TRiMThe Bride 2015 720p BluRay DD5.1 x264-NCmtFancy Massage Salon 2013720p WEB-DL ACC2.0 H.264-REALHD

Comment for Beautiful Teacher in Torture Hell 1985 JP 1080p BluRay DD5.1 x264-KOOK

Only members can create comment.