Below Her Mouth 2017 720p WEB-DL x264 - FiLMANTA

Download Below Her Mouth 2017 720p WEB-DL x264 - FiLMANTA 
Small Description
Basic Info
Uploaded byAnonymous at 2017-03-18 13:24:18
Action
Social
  • 7
Hot Meter
  • Views: 880
  • Hits: 103
  • Snatched: 61 x time(s)
  • Last Action: 2018-10-19 09:30:32
Peers0 Seeder | 3 Leecher
 Below Her Mouth 2017 720p WEB-DL x264 - FiLMANTA screenshots Below Her Mouth 2017 720p WEB-DL x264 - FiLMANTA screenshots Below Her Mouth 2017 720p WEB-DL x264 - FiLMANTA screenshots Below Her Mouth 2017 720p WEB-DL x264 - FiLMANTA screenshots Below Her Mouth 2017 720p WEB-DL x264 - FiLMANTA screenshots Below Her Mouth 2017 720p WEB-DL x264 - FiLMANTA screenshots Below Her Mouth 2017 720p WEB-DL x264 - FiLMANTA screenshots Below Her Mouth 2017 720p WEB-DL x264 - FiLMANTA screenshots Below Her Mouth 2017 720p WEB-DL x264 - FiLMANTA screenshots Below Her Mouth 2017 720p WEB-DL x264 - FiLMANTA screenshots Below Her Mouth 2017 720p WEB-DL x264 - FiLMANTA screenshots Below Her Mouth 2017 720p WEB-DL x264 - FiLMANTA screenshots Below Her Mouth 2017 720p WEB-DL x264 - FiLMANTA screenshots Below Her Mouth 2017 720p WEB-DL x264 - FiLMANTA screenshots Below Her Mouth 2017 720p WEB-DL x264 - FiLMANTA screenshots



BELOW HER MOUTH is a bold, uninhibited drama that begins with a passionate weekend affair between two women. Dallas, a roofer and Jasmine, a fashion editor, share a powerful and immediate connection that inevitably derails both of their lives.


General
Complete name                  : Below.Her.Mouth.2016.SWESUB.720p.WEB-DL.x264-FiLMANTA\Below.Her.Mouth.2016.SWESUB.720p.WEB-DL.x264-FiLMANTA.mp4
Format                         : MPEG-4
Format profile                 : Base Media / Version 2
Codec ID                       : mp42 (isom/iso2/avc1/mp41)
File size                      : 1.54 GiB
Duration                       : 1 h 31 min
Overall bit rate mode          : Variable
Overall bit rate               : 2 409 kb/s
Movie name                     : SweSubs.com  / Filmer med svensk undertext!
Encoded date                   : UTC 2017-03-14 13:04:59
Tagged date                    : UTC 2017-03-14 13:04:59
Writing application            : HandBrake 1.0.2 2017012200

Video
ID                             : 1
Format                         : AVC
Format/Info                    : Advanced Video Codec
Format profile                 : Main@L4
Format settings, CABAC         : Yes
Format settings, ReFrames      : 4 frames
Codec ID                       : avc1
Codec ID/Info                  : Advanced Video Coding
Duration                       : 1 h 31 min
Bit rate                       : 2 212 kb/s
Width                          : 1 280 pixels
Height                         : 536 pixels
Display aspect ratio           : 2.40:1
Frame rate mode                : Constant
Frame rate                     : 24.000 FPS
Color space                    : YUV
Chroma subsampling             : 4:2:0
Bit depth                      : 8 bits
Scan type                      : Progressive
Bits/(Pixel*Frame)             : 0.134
Stream size                    : 1.41 GiB (92%)
Writing library                : x264 core 148 r2708 86b7198
Encoding settings              : cabac=1 / ref=3 / deblock=1:-1:-1 / analyse=0x1:0x111 / me=hex / subme=7 / psy=1 / psy_rd=1.00:0.15 / mixed_ref=1 / me_range=16 / chroma_me=1 / trellis=1 / 8x8dct=0 / cqm=0 / deadzone=21,11 / fast_pskip=1 / chroma_qp_offset=-3 / threads=12 / lookahead_threads=2 / sliced_threads=0 / nr=0 / decimate=1 / interlaced=0 / bluray_compat=0 / constrained_intra=0 / bframes=3 / b_pyramid=2 / b_adapt=1 / b_bias=0 / direct=1 / weightb=1 / open_gop=0 / weightp=2 / keyint=240 / keyint_min=24 / scenecut=40 / intra_refresh=0 / rc_lookahead=40 / rc=2pass / mbtree=1 / bitrate=2212 / ratetol=1.0 / qcomp=0.60 / qpmin=0 / qpmax=69 / qpstep=4 / cplxblur=20.0 / qblur=0.5 / vbv_maxrate=20000 / vbv_bufsize=25000 / nal_hrd=none / filler=0 / ip_ratio=1.40 / aq=1:1.00
Encoded date                   : UTC 2017-03-14 13:04:59
Tagged date                    : UTC 2017-03-14 13:04:59
Color range                    : Limited
Color primaries                : BT.709
Transfer characteristics       : BT.709
Matrix coefficients            : BT.709

Audio
ID                             : 2
Format                         : AAC
Format/Info                    : Advanced Audio Codec
Format profile                 : LC
Codec ID                       : 40
Duration                       : 1 h 31 min
Bit rate mode                  : Variable
Bit rate                       : 192 kb/s
Channel(s)                     : 2 channels
Channel positions              : Front: L R
Sampling rate                  : 48.0 kHz
Frame rate                     : 46.875 FPS (1024 spf)
Compression mode               : Lossy
Stream size                    : 125 MiB (8%)
Title                          : Stereo / Stereo
Language                       : English
Default                        : Yes
Alternate group                : 1
Encoded date                   : UTC 2017-03-14 13:04:59
Tagged date                    : UTC 2017-03-14 13:04:59




TitleBelow Her Mouth
Year2016
Genre
Rating5.5 (6,251 votes)
PlotBELOW HER MOUTH is a bold, uninhibited drama that begins with a passionate weekend affair between two women. Dallas, a roofer and Jasmine, a fashion editor, share a powerful and immediate connection that inevitably derails both of their lives.
DirectorApril Mullen
CastsErika Linder,Natalie Krill,Sebastian Pigott,Mayko Nguyen,Tommie-Amber Pirie…
Runtime94 min
Genres
Below Her Mouth


Tags

Other releases

Same genre with Below Her Mouth 2017 720p WEB-DL x264 - FiLMANTA

Les Cowboys 2015 1080p BluRay DD5.1 x264-EPiCBrothers 2009 mHD BluRay DD5.1 x264-TRiMCreed 2015.1080p Blu-ray AVC DTS-HD MA 7 1-HDAreaErotic Ghost Story III 1992 ViE 1080p WEB-DL DD2.0 x264-FFansLetters from Iwo Jima 2006 720p BluRay DD5.1 x264-RightSiZEFifty Shades Freed 2018 2in1 1080p Blu-ray AVC DTS-HD MA 7.1-MTeam

Comment for Below Her Mouth 2017 720p WEB-DL x264 - FiLMANTA

Only members can create comment.