NetHD.org

Blood Suckers from Outer Space 1984 720p BluRay DD2.0 x264-MM

Download Blood Suckers from Outer Space 1984 720p BluRay DD2.0 x264-MM 
Small Description
Basic Info
Uploaded byAnonymous at 2019-01-11 14:38:37
Action
Social
  • 2
Hot Meter
  • Views: 209
  • Hits: 17
  • Snatched: 3 x time(s)
  • Last Action: 2019-02-17 16:07:30
Peers0 Seeder | 0 Leecher


Blood Suckers from Outer Space 1984 720p BluRay DD2.0 x264-MM screenshots













Blood Suckers from Outer Space 1984 720p BluRay DD2.0 x264-MM screenshots


General
Unique ID                                : 286772625202159938720250930864087175670 (0xD7BE660B5A727ADEF9759B27679911F6)
Complete name                            : F:\MOVIE\Bloodsuckers.from.Outer.Space.1984.BDRip.720p.mkv
Format                                   : Matroska
Format version                           : Version 4 / Version 2
File size                                : 5.18 GiB
Duration                                 : 1 h 21 min
Overall bit rate                         : 9 045 kb/s
Encoded date                             : UTC 2018-07-19 20:01:34
Writing application                      : mkvmerge v25.0.0 ('Prog Noir') 64-bit
Writing library                          : libebml v1.3.6 + libmatroska v1.4.9

Video
ID                                       : 1
Format                                   : AVC
Format/Info                              : Advanced Video Codec
Format profile                           : High@L4.1
Format settings                          : CABAC / 9 Ref Frames
Format settings, CABAC                   : Yes
Format settings, RefFrames               : 9 frames
Codec ID                                 : V_MPEG4/ISO/AVC
Duration                                 : 1 h 21 min
Bit rate                                 : 8 400 kb/s
Width                                    : 1 280 pixels
Height                                   : 720 pixels
Display aspect ratio                     : 16:9
Frame rate mode                          : Constant
Frame rate                               : 23.976 (24000/1001) FPS
Color space                              : YUV
Chroma subsampling                       : 4:2:0
Bit depth                                : 8 bits
Scan type                                : Progressive
Bits/(Pixel*Frame)                       : 0.380
Stream size                              : 4.81 GiB (93%)
Title                                    : Bloodsuckers.from.Outer.Space.1984.BDRip.720p.x264-MM
Writing library                          : x264 core 146 r2538 121396c
Encoding settings                        : cabac=1 / ref=9 / deblock=1:-3:-3 / analyse=0x3:0x113 / me=umh / subme=11 / psy=1 / psy_rd=1.00:0.00 / mixed_ref=1 / me_range=48 / chroma_me=1 / trellis=2 / 8x8dct=1 / cqm=0 / deadzone=21,11 / fast_pskip=0 / chroma_qp_offset=-2 / threads=12 / lookahead_threads=3 / sliced_threads=0 / nr=0 / decimate=0 / interlaced=0 / bluray_compat=0 / constrained_intra=0 / bframes=12 / b_pyramid=2 / b_adapt=2 / b_bias=0 / direct=3 / weightb=1 / open_gop=1 / weightp=2 / keyint=250 / keyint_min=23 / scenecut=40 / intra_refresh=0 / rc_lookahead=60 / rc=2pass / mbtree=0 / bitrate=8400 / ratetol=1.0 / qcomp=0.60 / qpmin=0 / qpmax=69 / qpstep=4 / cplxblur=20.0 / qblur=0.5 / vbv_maxrate=50000 / vbv_bufsize=62500 / nal_hrd=none / filler=0 / ip_ratio=1.40 / pb_ratio=1.30 / aq=1:1.10
Language                                 : English
Default                                  : Yes
Forced                                   : No

Audio #1
ID                                       : 2
Format                                   : AC-3
Format/Info                              : Audio Coding 3
Codec ID                                 : A_AC3
Duration                                 : 1 h 21 min
Bit rate mode                            : Constant
Bit rate                                 : 192 kb/s
Channel(s)                               : 2 channels
Channel positions                        : Front: L R
Sampling rate                            : 48.0 kHz
Frame rate                               : 31.250 FPS (1536 SPF)
Bit depth                                : 16 bits
Compression mode                         : Lossy
Stream size                              : 113 MiB (2%)
Title                                    : AVO Живов
Language                                 : Russian
Service kind                             : Complete Main
Default                                  : Yes
Forced                                   : No

Audio #2
ID                                       : 3
Format                                   : MPEG Audio
Format version                           : Version 1
Format profile                           : Layer 3
Format settings                          : Joint stereo / MS Stereo
Codec ID                                 : A_MPEG/L3
Codec ID/Hint                            : MP3
Duration                                 : 1 h 21 min
Bit rate mode                            : Constant
Bit rate                                 : 192 kb/s
Channel(s)                               : 2 channels
Sampling rate                            : 44.1 kHz
Frame rate                               : 38.281 FPS (1152 SPF)
Compression mode                         : Lossy
Stream size                              : 112 MiB (2%)
Title                                    : VO Трамвай-Фильм
Language                                 : Russian
Default                                  : No
Forced                                   : No

Audio #3
ID                                       : 4
Format                                   : AC-3
Format/Info                              : Audio Coding 3
Codec ID                                 : A_AC3
Duration                                 : 1 h 21 min
Bit rate mode                            : Constant
Bit rate                                 : 256 kb/s
Channel(s)                               : 1 channel
Channel positions                        : Front: C
Sampling rate                            : 48.0 kHz
Frame rate                               : 31.250 FPS (1536 SPF)
Bit depth                                : 16 bits
Compression mode                         : Lossy
Stream size                              : 150 MiB (3%)
Title                                    : Original
Language                                 : English
Service kind                             : Complete Main
Default                                  : No
Forced                                   : No

Text
ID                                       : 5
Format                                   : PGS
Muxing mode                              : zlib
Codec ID                                 : S_HDMV/PGS
Codec ID/Info                            : Picture based subtitle format used on BDs/HD-DVDs
Duration                                 : 1 h 21 min
Bit rate                                 : 36.2 kb/s
Count of elements                        : 2402
Stream size                              : 21.1 MiB (0%)
Language                                 : English
Default                                  : Yes
Forced                                   : No

Menu
00:00:00.000                             : en:Chapter 1
00:20:58.757                             : en:Chapter 2
00:39:47.385                             : en:Chapter 3
01:01:38.194                             : en:Chapter 4













Blood Suckers from Outer Space 1984 720p BluRay DD2.0 x264-MM screenshots


Blood Suckers from Outer Space 1984 720p BluRay DD2.0 x264-MM screenshotsBlood Suckers from Outer Space 1984 720p BluRay DD2.0 x264-MM screenshotsBlood Suckers from Outer Space 1984 720p BluRay DD2.0 x264-MM screenshots
Blood Suckers from Outer Space 1984 720p BluRay DD2.0 x264-MM screenshotsBlood Suckers from Outer Space 1984 720p BluRay DD2.0 x264-MM screenshotsBlood Suckers from Outer Space 1984 720p BluRay DD2.0 x264-MM screenshots

TitleBlood Suckers from Outer Space
Year1984
Genre
Rating4.9 (453 votes)
Plotn/A
DirectorGlen Coburn
CastsRobert Bradeen,Big John Brigham,Glen Coburn,Franny Coppenbarger,Christine Crowe…
Runtime79 min
Blood Suckers from Outer Space


The Haunted Mansion 2003 m720p HDTV AAC2.0 H.264-NTVLife 1999 1080p Blu-ray AVC DTS-HD MA 5.1-FULLSIZELove in Disguise 2010 BluRay 1080p x264 TrueHD7.1-HDChinaChevalier 2015 720p BluRay DD5.1 x264-IDESabrina 1995 720p BluRay DD5.1 x264-IDEHorrible Bosses 2 2014 Extended 720p BluRay DD5.1 x264-DON

Only members can create comment.