Braven 2018 ViE 1080p BluRay DTS x264-FGT

Download Braven 2018 ViE 1080p BluRay DTS x264-FGT Free
Small DescriptionĐối Mặt 2018 | Au Vie + Sub Vie
Basic Info
Uploaded byAnonymous at 2018-03-09 06:16:34
Action
Social
  • 23
Hot Meter
  • Views: 2041
  • Hits: 377
  • Snatched: 308 x time(s)
  • Last Action: 2018-06-23 21:35:36
Peers25 Seeder | 0 Leecher
Braven 2018 ViE 1080p BluRay DTS x264-FGT screenshotsBraven 2018 ViE 1080p BluRay DTS x264-FGT screenshots Braven 2018 ViE 1080p BluRay DTS x264-FGT screenshots Braven 2018 ViE 1080p BluRay DTS x264-FGT screenshots Braven 2018 ViE 1080p BluRay DTS x264-FGT screenshots Braven 2018 ViE 1080p BluRay DTS x264-FGT screenshots Braven 2018 ViE 1080p BluRay DTS x264-FGT screenshots Braven 2018 ViE 1080p BluRay DTS x264-FGT screenshots Braven 2018 ViE 1080p BluRay DTS x264-FGT screenshots Braven 2018 ViE 1080p BluRay DTS x264-FGT screenshots Braven 2018 ViE 1080p BluRay DTS x264-FGT screenshots Braven 2018 ViE 1080p BluRay DTS x264-FGT screenshots Braven 2018 ViE 1080p BluRay DTS x264-FGT screenshots Braven 2018 ViE 1080p BluRay DTS x264-FGT screenshots Braven 2018 ViE 1080p BluRay DTS x264-FGT screenshots Braven 2018 ViE 1080p BluRay DTS x264-FGT screenshots Braven 2018 ViE 1080p BluRay DTS x264-FGT screenshots Braven 2018 ViE 1080p BluRay DTS x264-FGT screenshots Braven 2018 ViE 1080p BluRay DTS x264-FGT screenshots Braven 2018 ViE 1080p BluRay DTS x264-FGT screenshots Braven 2018 ViE 1080p BluRay DTS x264-FGT screenshots

Quote
Format                                   : Matroska
Format version                           : Version 4 / Version 2
File size                                : 9.29 GiB
Duration                                 : 1h 33mn
Overall bit rate                         : 14.2 Mbps
Encoded date                             : UTC 2018-03-08 10:19:15
Writing application                      : mkvmerge v21.0.0 ('Tardigrades Will Inherit The Earth') 64-bit
Writing library                          : libebml v1.3.5 + libmatroska v1.4.8
Attachements                             : Small_cover.jpg / Small_cover_land.jpg / Cover.jpg / Cover_land.jpg
DURATION                                 : 01:33:36.886000000
NUMBER_OF_FRAMES                         : 526583
NUMBER_OF_BYTES                          : 1059484996
_STATISTICS_WRITING_APP                  : mkvmerge v21.0.0 ('Tardigrades Will Inherit The Earth') 64-bit
_STATISTICS_WRITING_DATE_UTC             : 2018-03-08 10:19:15
_STATISTICS_TAGS                         : BPS DURATION NUMBER_OF_FRAMES NUMBER_OF_BYTES

Video
ID                                       : 1
Format                                   : AVC
Format/Info                              : Advanced Video Codec
Format profile                           : High@L4.1
Format settings, CABAC                   : Yes
Format settings, ReFrames                : 4 frames
Codec ID                                 : V_MPEG4/ISO/AVC
Duration                                 : 1h 33mn
Bit rate                                 : 10.9 Mbps
Nominal bit rate                         : 11.5 Mbps
Width                                    : 1 920 pixels
Height                                   : 812 pixels
Display aspect ratio                     : 2.35:1
Frame rate mode                          : Constant
Frame rate                               : 23.976 fps
Color space                              : YUV
Chroma subsampling                       : 4:2:0
Bit depth                                : 8 bits
Scan type                                : Progressive
Bits/(Pixel*Frame)                       : 0.292
Stream size                              : 7.14 GiB (77%)
Title                                    : Braven (2018) | FGT
Writing library                          : x264 core 148 r2795M aaa9aa8
Encoding settings                        : cabac=1 / ref=4 / deblock=1:-2:-2 / analyse=0x3:0x113 / me=umh / subme=9 / psy=1 / psy_rd=1.00:0.15 / mixed_ref=1 / me_range=16 / chroma_me=1 / trellis=2 / 8x8dct=1 / cqm=0 / deadzone=21,11 / fast_pskip=1 / chroma_qp_offset=-3 / threads=24 / lookahead_threads=3 / sliced_threads=0 / nr=0 / decimate=1 / interlaced=0 / bluray_compat=0 / constrained_intra=0 / bframes=3 / b_pyramid=2 / b_adapt=2 / b_bias=0 / direct=3 / weightb=1 / open_gop=0 / weightp=2 / keyint=250 / keyint_min=25 / scenecut=40 / intra_refresh=0 / rc_lookahead=50 / rc=abr / mbtree=1 / bitrate=11500 / ratetol=1.0 / qcomp=0.60 / qpmin=0 / qpmax=69 / qpstep=4 / vbv_maxrate=31250 / vbv_bufsize=31250 / nal_hrd=none / filler=0 / ip_ratio=1.40 / aq=1:1.00
Language                                 : English
Default                                  : Yes
Forced                                   : No

Audio #1
ID                                       : 2
Format                                   : DTS
Format/Info                              : Digital Theater Systems
Mode                                     : 16
Format settings, Endianness              : Big
Codec ID                                 : A_DTS
Duration                                 : 1h 33mn
Bit rate mode                            : Constant
Bit rate                                 : 1 509 Kbps
Channel(s)                               : 6 channels
Channel positions                        : Front: L C R, Side: L R, LFE
Sampling rate                            : 48.0 KHz
Bit depth                                : 24 bits
Compression mode                         : Lossy
Stream size                              : 1 010 MiB (11%)
Language                                 : Vietnamese
Default                                  : Yes
Forced                                   : No

Audio #2
ID                                       : 3
Format                                   : DTS
Format/Info                              : Digital Theater Systems
Mode                                     : 16
Format settings, Endianness              : Big
Codec ID                                 : A_DTS
Duration                                 : 1h 33mn
Bit rate mode                            : Constant
Bit rate                                 : 1 509 Kbps
Channel(s)                               : 6 channels
Channel positions                        : Front: L C R, Side: L R, LFE
Sampling rate                            : 48.0 KHz
Bit depth                                : 24 bits
Compression mode                         : Lossy
Stream size                              : 1 010 MiB (11%)
Language                                 : English
Default                                  : No
Forced                                   : No
DURATION                                 : 01:33:36.864000000
NUMBER_OF_FRAMES                         : 526581
NUMBER_OF_BYTES                          : 1059480972
_STATISTICS_WRITING_APP                  : mkvmerge v21.0.0 ('Tardigrades Will Inherit The Earth') 64-bit
_STATISTICS_WRITING_DATE_UTC             : 2018-03-08 10:19:15
_STATISTICS_TAGS                         : BPS DURATION NUMBER_OF_FRAMES NUMBER_OF_BYTES

Text #1
ID                                       : 4
Format                                   : UTF-8
Codec ID                                 : S_TEXT/UTF8
Codec ID/Info                            : UTF-8 Plain Text
Language                                 : Vietnamese
Default                                  : No
Forced                                   : No

Text #2
ID                                       : 5
Format                                   : UTF-8
Codec ID                                 : S_TEXT/UTF8
Codec ID/Info                            : UTF-8 Plain Text
Language                                 : English
Default                                  : Yes
Forced                                   : No

Menu
00:00:00.000                             : en:Chapter 01
00:14:01.757                             : en:Chapter 02
00:28:18.655                             : en:Chapter 03
00:41:32.990                             : en:Chapter 04
00:50:55.260                             : en:Chapter 05
01:03:18.669                             : en:Chapter 06
01:19:35.187                             : en:Chapter 07
01:29:20.521                             : en:Chapter 08


TitleBraven
Year2018
GenreAction / Drama
Rating6.3 (15,399 votes)
PlotJoe Braven is a logging company owner who lives with his family in Canada. Joe's father, Linden, suffering from dementia, mistakes a woman in a bar for his wife, prompting a barroom brawl that lands Linden in the hospital. The family decides to take a break at their secluded log cabin, where they run into trouble from a drug dealer who wants to use Joe's business as a front for his cocaine operation. Written by AnonymousB
DirectorLin Oeding
CastsJason Momoa / Garret Dillahunt / Jill Wagner / Stephen Lang / Sasha Rossof…
Runtime94 min
GenresAction / Drama
Braven


Tags

Other releases

Same genre with Braven 2018 ViE 1080p BluRay DTS x264-FGT

In the Heart of the Sea 2015 1080p 3D BluRay Half-SBS DD5.1 x264-EATower of Death 1981 ViE mHD BluRay DD5.1 x264-BiRDBig Game 2014 720p BluRay DTS x264-DONFright Night 2 New Blood 2013 720p BluRay DTS x264-TayTOAllied 2016 1080p BluRay REMUX AVC DTS-HD MA 5.1-CHDOm Shanti Om 2007 720p BluRay DTS x264-Positive

Comment for Braven 2018 ViE 1080p BluRay DTS x264-FGT

Only members can create comment.