NetHD.org

Burning Kiss 2018 1080p WEB-DL H.264 DD5.1

Download Burning Kiss 2018 1080p WEB-DL H.264 DD5.1 
Small DescriptionA hallucinogenic summer noir cocktail spiked with suspense is concocted as the unexpected arrival of a stranger ignites an inferno of secrets and guilt, complicating the relationship between a father and his daughter.
Basic Info
Uploaded byAnonymous at 2019-08-13 22:33:33
Action
Hot Meter
  • Views: 169
  • Hits: 12
  • Snatched: 6 x time(s)
  • Last Action: 2019-11-20 23:10:25
Peers0 Seeder | 0 Leecher

  • 0


Quote
Video
ID                                       : 1
Format                                   : AVC
Format/Info                              : Advanced Video Codec
Format profile                           : High@L4
Format settings, CABAC                   : Yes
Format settings, ReFrames                : 5 frames
Codec ID                                 : V_MPEG4/ISO/AVC
Duration                                 : 1h 20mn
Bit rate                                 : 4 528 Kbps
Width                                    : 1 912 pixels
Height                                   : 804 pixels
Display aspect ratio                     : 2.40:1
Frame rate mode                          : Constant
Frame rate                               : 23.976 fps
Color space                              : YUV
Chroma subsampling                       : 4:2:0
Bit depth                                : 8 bits
Scan type                                : Progressive
Bits/(Pixel*Frame)                       : 0.123
Stream size                              : 2.56 GiB (92%)
Language                                 : English
Default                                  : Yes
Forced                                   : No
Color range                              : Limited
Color primaries                          : BT.709
Transfer characteristics                 : BT.709
Matrix coefficients                      : BT.709

Audio
ID                                       : 2
Format                                   : AC-3
Format/Info                              : Audio Coding 3
Mode extension                           : CM (complete main)
Format settings, Endianness              : Big
Codec ID                                 : A_AC3
Duration                                 : 1h 20mn
Bit rate mode                            : Constant
Bit rate                                 : 384 Kbps
Channel(s)                               : 6 channels
Channel positions                        : Front: L C R, Side: L R, LFE
Sampling rate                            : 48.0 KHz
Frame rate                               : 31.250 fps (1536 spf)
Compression mode                         : Lossy
Delay relative to video                  : -42ms
Stream size                              : 222 MiB (8%)
Language                                 : English
Default                                  : Yes
Forced                                   : No

Text #1
ID                                       : 3
Format                                   : UTF-8
Codec ID                                 : S_TEXT/UTF8
Codec ID/Info                            : UTF-8 Plain Text
Duration                                 : 1h 17mn
Bit rate                                 : 45 bps
Count of elements                        : 592
Stream size                              : 26.0 KiB (0%)
Language                                 : Danish
Default                                  : Yes
Forced                                   : No

Text #2
ID                                       : 4
Format                                   : UTF-8
Codec ID                                 : S_TEXT/UTF8
Codec ID/Info                            : UTF-8 Plain Text
Duration                                 : 1h 17mn
Bit rate                                 : 44 bps
Count of elements                        : 589
Stream size                              : 25.5 KiB (0%)
Language                                 : Norwegian
Default                                  : No
Forced                                   : No

Text #3
ID                                       : 5
Format                                   : UTF-8
Codec ID                                 : S_TEXT/UTF8
Codec ID/Info                            : UTF-8 Plain Text
Duration                                 : 1h 17mn
Bit rate                                 : 47 bps
Count of elements                        : 587
Stream size                              : 26.8 KiB (0%)
Language                                 : Swedish
Default                                  : No
Forced                                   : No

Text #4
ID                                       : 6
Format                                   : UTF-8
Codec ID                                 : S_TEXT/UTF8
Codec ID/Info                            : UTF-8 Plain Text
Duration                                 : 1h 17mn
Bit rate                                 : 46 bps
Count of elements                        : 589
Stream size                              : 26.4 KiB (0%)
Language                                 : Finnish
Default                                  : No
Forced                                   : No

Menu
00:00:00.000                             : en:1
00:02:38.000                             : en:2
00:12:03.000                             : en:3
00:22:53.000                             : en:4
00:32:36.000                             : en:5
00:43:04.000                             : en:6
00:54:35.000                             : en:7
01:04:28.000                             : en:8
01:18:12.000                             : en:9



Burning Kiss 2018 1080p WEB-DL H.264 DD5.1 screenshots Burning Kiss 2018 1080p WEB-DL H.264 DD5.1 screenshots Burning Kiss 2018 1080p WEB-DL H.264 DD5.1 screenshots Burning Kiss 2018 1080p WEB-DL H.264 DD5.1 screenshots Burning Kiss 2018 1080p WEB-DL H.264 DD5.1 screenshots Burning Kiss 2018 1080p WEB-DL H.264 DD5.1 screenshots Burning Kiss 2018 1080p WEB-DL H.264 DD5.1 screenshots Burning Kiss 2018 1080p WEB-DL H.264 DD5.1 screenshots Burning Kiss 2018 1080p WEB-DL H.264 DD5.1 screenshots Burning Kiss 2018 1080p WEB-DL H.264 DD5.1 screenshots
TitleBurning Kiss
Year2018
GenreThriller
Rating3.6 (101 votes)
Plotn/A
DirectorRobbie Studsor
CastsLiam Graham,Richard Mellick,Alyson Walker,Christie Sistrunk,Nichola Renton-Weir…
Runtime81 min
Burning Kiss


Secret Defense 2008 720p Blu-ray DTS x264-BBWDressed to Kill 1980 Unrated 720p BluRay DD5.1 x264-trancA Dark Place 2018 1080p BluRay DTS-HD MA 5.1 x264-MTeamHeatstroke 2013 1080p Blu-ray AVC DD 5.1-o0oPressure 2015 720p BluRay DTS x264-HDSMemento 2000 mHD BluRay DD5.1 x264-TRiM

Only members can create comment.