Casper 1995 VIE BluRay 720p x264 AC3 2Audios-CMCT

Download Casper 1995 VIE BluRay 720p x264 AC3 2Audios-CMCT 
Small DescriptionCon ma vui vẻ 1990 l Thuyết Minh VTC DD2.0 l REMUX by zaZay0
Basic Info
Uploaded byzaZay0 (Ultimate User) at 2018-06-13 22:54:51
Action
Social
  • 6
Hot Meter
  • Views: 180
  • Hits: 39
  • Snatched: 31 x time(s)
  • Last Action: 2018-06-23 07:34:10
Peers8 Seeder | 0 Leecher
Casper 1995 VIE BluRay 720p x264 AC3 2Audios-CMCT screenshots
Casper 1995 VIE BluRay 720p x264 AC3 2Audios-CMCT screenshots
Casper: Con ma vui vẻ
Lo lắng vì người cha quá cố chỉ để lại cho mình ngôi nhà tăm tối đổ nát chứ không phải là hàng triệu đô la, Carrigan Crittenden đã sẵn sàng đốt bỏ ngôi nhà nếu không phát hiện ra một tấm bản đồ kho báu. Nhưng khi bà ta vào trong ngôi nhà để tìm kho báu thì đã bị một đàn ma làm cho khiếp sợ bỏ chạy. Kiên quyết phải tim kho báu cho bằng được, bà ta đã thuê Giáo sư Harvey chuyên về cuộc sống sau cái chết và cô con gái Kat đến ở ngôi nhà mới để đuổi ma. Chẳng bao lâu sau, cô bé Kat đã gặp và kết thân với con ma thân thiện và hiền lành Casper, trong khi ba ông chú Stretch, Fatso và Stinkie tinh quái, nghịch ngợm của Casper thì quyết tâm đuổi hết con người ra khỏi ngôi nhà này. Nhưng Kat và Casper vô tình phát hiện ra một cỗ máy có thể giúp những con ma sống lại thành người...
Casper 1995 VIE BluRay 720p x264 AC3 2Audios-CMCT screenshots
Video
ID                          : 1
Format                      : AVC
Format/Info                 : Advanced Video Codec
Format profile              : High@L4.1
Format settings, CABAC      : Yes
Format settings, ReFrames   : 8 frames
Codec ID                    : V_MPEG4/ISO/AVC
Duration                    : 1 h 40 min
Bit rate                    : 3 729 kb/s
Width                       : 1 280 pixels
Height                      : 690 pixels
Display aspect ratio        : 1.85:1
Frame rate mode             : Constant
Frame rate                  : 23.976 (24000/1001) FPS
Color space                 : YUV
Chroma subsampling          : 4:2:0
Bit depth                   : 8 bits
Scan type                   : Progressive
Bits/(Pixel*Frame)          : 0.176
Stream size                 : 2.55 GiB (80%)
Title                       : 六牛@CMCT
Writing library             : x264 core 142 r2431 ac76440
Encoding settings           : cabac=1 / ref=8 / deblock=1:-3:-3 / analyse=0x3:0x133 / me=umh / subme=11 / psy=1 / psy_rd=1.00:0.00 / mixed_ref=1 / me_range=48 / chroma_me=1 / trellis=2 / 8x8dct=1 / cqm=0 / deadzone=21,11 / fast_pskip=1 / chroma_qp_offset=-2 / threads=12 / lookahead_threads=1 / sliced_threads=0 / nr=0 / decimate=1 / interlaced=0 / bluray_compat=0 / constrained_intra=0 / bframes=6 / b_pyramid=2 / b_adapt=2 / b_bias=0 / direct=1 / weightb=1 / open_gop=0 / weightp=2 / keyint=240 / keyint_min=22 / scenecut=40 / intra_refresh=0 / rc_lookahead=60 / rc=2pass / mbtree=1 / bitrate=3729 / ratetol=1.0 / qcomp=0.60 / qpmin=0 / qpmax=69 / qpstep=4 / cplxblur=20.0 / qblur=0.5 / vbv_maxrate=45000 / vbv_bufsize=45000 / nal_hrd=none / filler=0 / ip_ratio=1.40 / aq=1:1.00
Default                     : Yes
Forced                      : No

Audio #1
ID                          : 2
Format                      : AC-3 
Format/Info                 : Audio Coding 3
Mode extension              : CM (complete main)
Format settings, Endianness : Big
Codec ID                    : A_AC3
Duration                    : 1 h 40 min
Bit rate mode               : Constant
Bit rate                    : 192 kb/s
Channel(s)                  : 2 channels
Channel positions           : Front: L R
Sampling rate               : 48.0 kHz
Frame rate                  : 31.250 FPS (1536 spf)
Compression mode            : Lossy
Stream size                 : 138 MiB (4%)
Title                       : VIE.REMUX.HUYNH.TOAN 
Language                    : Vietnamese
Default                     : Yes
Forced                      : No

Audio #2
ID                          : 3
Format                      : AC-3 
Format/Info                 : Audio Coding 3
Mode extension              : CM (complete main)
Format settings, Endianness : Big
Codec ID                    : A_AC3
Duration                    : 1 h 40 min
Bit rate mode               : Constant
Bit rate                    : 640 kb/s
Channel(s)                  : 6 channels
Channel positions           : Front: L C R, Side: L R, LFE
Sampling rate               : 48.0 kHz
Frame rate                  : 31.250 FPS (1536 spf)
Compression mode            : Lossy
Stream size                 : 458 MiB (14%)
Language                    : English
Default                     : No
Forced                      : No

Text
ID                          : 4
Format                      : UTF-8
Codec ID                    : S_TEXT/UTF8
Codec ID/Info               : UTF-8 Plain Text
Title                       : 英文
Language                    : English
Default                     : No
Forced                      : No
Casper 1995 VIE BluRay 720p x264 AC3 2Audios-CMCT screenshots
Casper 1995 VIE BluRay 720p x264 AC3 2Audios-CMCT screenshots Casper 1995 VIE BluRay 720p x264 AC3 2Audios-CMCT screenshots Casper 1995 VIE BluRay 720p x264 AC3 2Audios-CMCT screenshots Casper 1995 VIE BluRay 720p x264 AC3 2Audios-CMCT screenshots Casper 1995 VIE BluRay 720p x264 AC3 2Audios-CMCT screenshots Casper 1995 VIE BluRay 720p x264 AC3 2Audios-CMCT screenshots Casper 1995 VIE BluRay 720p x264 AC3 2Audios-CMCT screenshots 
TitleCasper
Year1995
GenreComedy / Family / Fantasy
Rating6.1 (100,082 votes)
PlotFurious that her late father only willed her his gloomy-looking mansion rather than his millions, Carrigan Crittenden is ready to burn the place to the ground when she discovers a map to a treasure hidden in the house. But when she enters the rickety mansion to seek her claim, she is frightened away by a wicked wave of ghosts. Determined to get her hands on this hidden fortune, she hires afterlife therapist Dr. James Harvey to exorcise the ghosts from the mansion. Harvey and his daughter Kat…
DirectorBrad Silberling
CastsChauncey Leopardi / Spencer Vrooman / Malachi Pearson / Cathy Moriarty / Eric Idle…
Runtime100 min
GenresComedy / Family / Fantasy
Casper


Tags

Other releases

Same genre with Casper 1995 VIE BluRay 720p x264 AC3 2Audios-CMCT

The Single Moms Club 2014 m720p HDTV AAC2 0 H.264-NTVGoodbye to All That 2014 720p BluRay DTS x264-USURYProblem Child 1990 720p BluRay DTS x264-GUACAMOLE Mr Woodcock 2007 720p BluRay DTS-ES x264-ESiRLife After Beth (2014) 1080p BrRip x264 - YIFYTurn Me On, Dammit! 2011 mHD BluRay DD5.1 x264-TRiM

Comment for Casper 1995 VIE BluRay 720p x264 AC3 2Audios-CMCT

Only members can create comment.