China Salesman 2017 720p BluRay DD5.1 x264-beAst

Download China Salesman 2017 720p BluRay DD5.1 x264-beAst 
Small DescriptionYan Jian, a young Chinese IT engineer who volunteers to go to North Africa and help the company he works for to win a competition. The winner can own the right to control the communication ...
Basic Info
Uploaded byAnonymous at 2018-09-14 22:16:48
Action
Social
  • 2
Hot Meter
  • Views: 101
  • Hits: 15
  • Snatched: 11 x time(s)
  • Last Action: 2018-11-18 20:22:18
Peers2 Seeder | 0 Leecher
China Salesman 2017 720p BluRay DD5.1 x264-beAst screenshots



Quote
General
Unique ID : 198329115336903159445132241196458890621 (0x9534CC574D37A191A555657248CED57D)
Complete name : /media/sdl1/nethd/private/rtorrent/data/China.Salesman.2017.BluRay.720p.AC3.x264-beAst/China.Salesman.2017.BluRay.720p.AC3.x264-beAst.mkv
Format : Matroska
Format version : Version 4 / Version 2
File size : 4.07 GiB
Duration : 1 h 50 min
Overall bit rate : 5 265 kb/s
Encoded date : UTC 2018-08-07 07:47:39
Writing application : mkvmerge v8.3.0 ('Over the Horizon') 64bit
Writing library : libebml v1.3.1 + libmatroska v1.4.2

Video
ID : 1
Format : AVC
Format/Info : Advanced Video Codec
Format profile : High@L4.1
Format settings, CABAC : Yes
Format settings, ReFrames : 9 frames
Codec ID : V_MPEG4/ISO/AVC
Duration : 1 h 50 min
Bit rate : 4 800 kb/s
Width : 1 280 pixels
Height : 576 pixels
Display aspect ratio : 2.222
Frame rate mode : Constant
Frame rate : 23.976 (24000/1001) FPS
Color space : YUV
Chroma subsampling : 4:2:0
Bit depth : 8 bits
Scan type : Progressive
Bits/(Pixel*Frame) : 0.272
Stream size : 3.70 GiB (91%)
Title : MPEG-4 x264@High Profile L4.1, 24/1.001 fps @ 4800 kbps
Writing library : x264 core 155 r2901 7d0ff22
Encoding settings : cabac=1 / ref=9 / deblock=1:-3:-3 / analyse=0x3:0x133 / me=umh / subme=11 / psy=1 / psy_rd=1.00:0.00 / mixed_ref=1 / me_range=32 / chroma_me=1 / trellis=2 / 8x8dct=1 / cqm=0 / deadzone=21,11 / fast_pskip=0 / chroma_qp_offset=-2 / threads=18 / lookahead_threads=2 / sliced_threads=0 / nr=0 / decimate=0 / interlaced=0 / bluray_compat=0 / constrained_intra=0 / bframes=6 / b_pyramid=2 / b_adapt=2 / b_bias=0 / direct=3 / weightb=1 / open_gop=0 / weightp=2 / keyint=240 / keyint_min=23 / scenecut=40 / intra_refresh=0 / rc_lookahead=60 / rc=2pass / mbtree=1 / bitrate=4800 / ratetol=1.0 / qcomp=0.60 / qpmin=0 / qpmax=69 / qpstep=4 / cplxblur=20.0 / qblur=0.5 / vbv_maxrate=22000 / vbv_bufsize=22000 / nal_hrd=none / filler=0 / ip_ratio=1.40 / aq=1:0.60
Default : Yes
Forced : No

Audio
ID : 2
Format : AC-3
Format/Info : Audio Coding 3
Mode extension : CM (complete main)
Format settings, Endianness : Big
Codec ID : A_AC3
Duration : 1 h 50 min
Bit rate mode : Constant
Bit rate : 448 kb/s
Channel(s) : 6 channels
Channel positions : Front: L C R, Side: L R, LFE
Sampling rate : 48.0 kHz
Frame rate : 31.250 FPS (1536 spf)
Bit depth : 16 bits
Compression mode : Lossy
Stream size : 354 MiB (9%)
Title : Mandarin Dolby Digital Audio 5.1 @ 448 kbps
Language : Chinese
Default : Yes
Forced : No

Text #1
ID : 3
Format : PGS
Codec ID : S_HDMV/PGS
Codec ID/Info : Picture based subtitle format used on BDs/HD-DVDs
Duration : 1 h 43 min
Bit rate : 14.1 kb/s
Count of elements : 2314
Stream size : 10.4 MiB (0%)
Title : Chs/SUP 简体
Language : Chinese
Default : Yes
Forced : No

Text #2
ID : 4
Format : PGS
Codec ID : S_HDMV/PGS
Codec ID/Info : Picture based subtitle format used on BDs/HD-DVDs
Duration : 1 h 43 min
Bit rate : 14.7 kb/s
Count of elements : 2314
Stream size : 10.8 MiB (0%)
Title : Chs/SUP 繁体
Language : Chinese
Default : No
Forced : No

Menu
00:00:00.000 : en:00:00:00.000
00:08:41.980 : en:00:08:41.980
00:15:59.000 : en:00:15:59.000
00:23:33.954 : en:00:23:33.954
00:31:49.449 : en:00:31:49.449
00:39:01.589 : en:00:39:01.589
00:46:20.611 : en:00:46:20.611
00:52:15.341 : en:00:52:15.341
00:59:43.371 : en:00:59:43.371
01:08:07.792 : en:01:08:07.792
01:16:20.993 : en:01:16:20.993
01:23:31.298 : en:01:23:31.298
01:31:10.131 : en:01:31:10.131
01:38:12.845 : en:01:38:12.845
01:44:56.582 : en:01:44:56.582




China Salesman 2017 720p BluRay DD5.1 x264-beAst screenshots China Salesman 2017 720p BluRay DD5.1 x264-beAst screenshots China Salesman 2017 720p BluRay DD5.1 x264-beAst screenshots

China Salesman 2017 720p BluRay DD5.1 x264-beAst screenshots China Salesman 2017 720p BluRay DD5.1 x264-beAst screenshots China Salesman 2017 720p BluRay DD5.1 x264-beAst screenshots

TitleChina Salesman
Year2017
Genre
Rating3.3 (698 votes)
PlotYan Jian, a young Chinese IT engineer who volunteers to go to North Africa and help the company he works for to win a competition. The winner can own the right to control the communication between south and north. French spy Michael works for the West. His boss ordered him to go to the North Africa and win the competition, and they can control the great mineral resources of Africa. He hired the best mercenary in Africa whose name is Lauder and a former general Kabbah to help him. Yan has…
DirectorTan Bing
CastsDong-xue Li,Mike Tyson,Janicke Askevold,Li Ai,Eriq Ebouaney…
Runtime110 min
Genres
China Salesman


Tags

Other releases

Same genre with China Salesman 2017 720p BluRay DD5.1 x264-beAst

The Raid 2: Berandal 2014 1080p Blu-ray AVC DTS-HD MA 5.1-HDAccessThe Bad Lieutenant: Port of Call - New Orleans 2009 720p BluRay DD5.1 x264-denis100Planet of the Apes Duology (2011-2014) ViE BluRay Remux - CHD&NiPVampire Cleanup Department 2017 ViE mHD BluRay DD5.1 x264-[TRiM-JadViE]The Professionals 1966 720p BluRay x264-ESiRSalting the Battlefield 2014 720p BluRay DD5.1 x264-EbP

Comment for China Salesman 2017 720p BluRay DD5.1 x264-beAst

Only members can create comment.