NetHD.org

Cô Ba Sài Gòn (2017) HD 1080p

Download Cô Ba Sài Gòn (2017) HD 1080p 
Small Description
Basic Info
Uploaded bynguyenngoc79 (Anh đang lên) at 2019-03-11 09:23:57
Action
Social
  • 33
Hot Meter
  • Views: 1475
  • Hits: 568
  • Snatched: 489 x time(s)
  • Last Action: 2019-05-22 12:21:06
Peers57 Seeder | 0 Leecher


Chuyện kể về một tiểu thư (diễn viên Lan Ngọc) con của một nhà may áo dài Thanh Nữ nổi tiếng Sài Gòn thập niên 60. Với tánh tình sang chảnh, tự cao, tự đại, đi ngược lại nguyện vọng của mẹ, cô muốn chuyển nhà may sang chuyên hàng âu phục, điều này làm mẹ cô (diễn viên Ngô Thanh Vân) rất đau khổ. Để trả giá cho điều này cô bị lạc vào thế giới tương lai năm 2017 cũng tại cơ ngơi của cô, khi đó tiệm may Thanh Nữ đã mất, căn nhà cũng đang có nguy cơ mất. Cô lại mẫu thuẩn với chính bản thân của cô phiên bản 2017 (diễn viên Hồng Vân) nát rượu và suy sụp luôn tìm cách tự tử. Cuối cùng cô cùng với phiên bản tương lai hợp tác để vượt qua bao thử thách sóng gió chông gai, làm dậy sóng ngành thời trang của năm 2017 và hoàn thành sứ mệnh khôi phục nhà may danh giá Thanh Nữ  





General

Format                         : MPEG-4

Format profile                 : Base Media

Codec ID                       : isom (isom/iso2/avc1/mp41)

File size                      : 1.12 GiB

Duration                       : 1 h 40 min

Overall bit rate               : 1 596 kb/s

Writing application            : Lavf57.83.100


Video

ID                             : 1

Format                         : AVC

Format/Info                    : Advanced Video Codec

Format profile                 : High@L3.1

Format settings, CABAC         : Yes

Format settings, RefFrames     : 5 frames


Codec ID                       : avc1

Codec ID/Info                  : Advanced Video Coding

Duration                       : 1 h 40 min

Bit rate                       : 1 280 kb/s

Width                          : 1 920 pixels

Height                         : 1 080 pixels

Display aspect ratio           : 16:9

Frame rate mode                : Constant

Frame rate                     : 30.000 FPS

Color space                    : YUV

Chroma subsampling             : 4:2:0

Bit depth                      : 8 bits

Scan type                      : Progressive

Bits/(Pixel*Frame)             : 0.021

Stream size                    : 918 MiB (80%)

Writing library                : x264 core 148 r2643 5c65704

Language                       : English

Audio

ID                             : 2

Format                         : AAC

Format/Info                    : Advanced Audio Codec

Format profile                 : LC

Codec ID                       : 40

Duration                       : 1 h 40 min

Bit rate mode                  : Constant

Bit rate                       : 318 kb/s

Channel(s)                     : 2 channels

Channel positions              : Front: L R

Sampling rate                  : 44.1 kHz

Frame rate                     : 43.066 FPS (1024 SPF)

Compression mode               : Lossy

Stream size                    : 229 MiB (20%)

Language                       : English


Screenshot 

Cô Ba Sài Gòn (2017) HD 1080p screenshots

Cô Ba Sài Gòn (2017) HD 1080p screenshots

Cô Ba Sài Gòn (2017) HD 1080p screenshotsCô Ba Sài Gòn (2017) HD 1080p screenshotsCô Ba Sài Gòn (2017) HD 1080p screenshotsCô Ba Sài Gòn (2017) HD 1080p screenshotsCô Ba Sài Gòn (2017) HD 1080p screenshotsCô Ba Sài Gòn (2017) HD 1080p screenshotsCô Ba Sài Gòn (2017) HD 1080p screenshotsCô Ba Sài Gòn (2017) HD 1080p screenshotsCô Ba Sài Gòn (2017) HD 1080p screenshotsCô Ba Sài Gòn (2017) HD 1080p screenshotsCô Ba Sài Gòn (2017) HD 1080p screenshots

TitleCô Ba Sài Gòn
Year2017
Genre
Rating6.9 (273 votes)
PlotThe re-enactment of the long dress (ao dai) era in 1960s, Saogon, thought to be the heyday of traditional Vietnamese costumes. Interwoven into that transformation in fashion and style of the ao dai in modern times told through the story of the character of Ba. Audiences will also see somewhere the image of the 60s, 70s full of honest women. An image of Saigon in the past, gentle and steeped in contrast to the rush of a dynamic city will be described by fashion, namely long dress - traditional…
DirectorKay Nguyen,Buu Loc Tran
CastsNinh Duong Lan Ngoc,Van Hong,Veronica Ngo,Diem My,Diem My 9x…
Runtime100 min
Genres
Cô Ba Sài Gòn


Ruler Master Of The Mask 2017 ViE 1080p HDTV AAC x264Gap Nhau Cuoi Nam 2003-2010Bad Guys 2014 ViE 720p HDTV AAC x264-THUYẾT MINHSóng Ở Đáy Sông 2000 5xDVD5Temptation 2014 ViE 720p HDTV AAC x264 USLTĐất Phương Nam DVDRip AC3 x264-TRiM

Only members can create comment.