Deep State S01 720p AMZN WEB-DL DDP5.1 x264-NTb

Download Deep State S01 720p AMZN WEB-DL DDP5.1 x264-NTb 
Small DescriptionMax Easton, a retired Secret Service operative and member of elite British/America team called The Section is coaxed back into the field to try to shut down an Iranian missile program. The situation is complicated by Max's estranged son, Harry, who has followed his father into the espionage world and as the series opens may have died in the line of duty. Written by ahmetkozan
Basic Info
Uploaded bydpc (Uploader) at 2018-06-13 22:10:52
Action
Social
  • 0
Hot Meter
  • Views: 222
  • Hits: 17
  • Snatched: 0 x time(s)
  • Last Action: 2018-08-09 17:46:15
Peers0 Seeder | 0 Leecher
Deep State S01 720p AMZN WEB-DL DDP5.1 x264-NTb screenshots


Plot


Deep State S01 720p AMZN WEB-DL DDP5.1 x264-NTb screenshots


Quote
General
Unique ID                   : 225790146051567524641678160199408918748 (0xA9DD99B0114D3544384953EBDA77A0DC)
Complete name               : E:\Phim\Deep.State.S01.720p.AMZN.WEB-DL.DDP5.1.x264-NTb\Deep.State.S01E01.Old.Habits.720p.AMZN.WEB-DL.DDP5.1.H.264-NTb.mkv
Format                      : Matroska
Format version              : Version 4 / Version 2
File size                   : 1.03 GiB
Duration                    : 50 min 46 s
Overall bit rate mode       : Variable
Overall bit rate            : 2 917 kb/s
Encoded date                : UTC 2018-04-24 18:42:37
Writing application         : mkvmerge v21.0.0 ('Tardigrades Will Inherit The Earth') 64-bit
Writing library             : libebml v1.3.5 + libmatroska v1.4.8

Video
ID                          : 1
Format                      : AVC
Format/Info                 : Advanced Video Codec
Format profile              : High@L3.1
Format settings, CABAC      : Yes
Format settings, ReFrames   : 5 frames
Codec ID                    : V_MPEG4/ISO/AVC
Duration                    : 50 min 46 s
Bit rate mode               : Variable
Bit rate                    : 2 275 kb/s
Maximum bit rate            : 4 500 kb/s
Width                       : 1 280 pixels
Height                      : 720 pixels
Display aspect ratio        : 16:9
Frame rate mode             : Constant
Frame rate                  : 25.000 FPS
Color space                 : YUV
Chroma subsampling          : 4:2:0
Bit depth                   : 8 bits
Scan type                   : Progressive
Bits/(Pixel*Frame)          : 0.099
Stream size                 : 826 MiB (78%)
Default                     : Yes
Forced                      : No
Color range                 : Limited
Color primaries             : BT.709
Transfer characteristics    : BT.709
Matrix coefficients         : BT.709

Audio
ID                          : 2
Format                      : E-AC-3
Format/Info                 : Enhanced Audio Coding 3
Format settings, Endianness : Big
Codec ID                    : A_EAC3
Duration                    : 50 min 46 s
Bit rate mode               : Constant
Bit rate                    : 640 kb/s
Channel(s)                  : 6 channels
Channel positions           : Front: L C R, Side: L R, LFE
Sampling rate               : 48.0 kHz
Frame rate                  : 187.500 FPS (256 spf)
Compression mode            : Lossy
Stream size                 : 232 MiB (22%)
Language                    : English
Default                     : Yes
Forced                      : No

Text #1
ID                          : 3
Format                      : UTF-8
Codec ID                    : S_TEXT/UTF8
Codec ID/Info               : UTF-8 Plain Text
Duration                    : 50 min 40 s
Bit rate                    : 34 b/s
Count of elements           : 504
Stream size                 : 12.7 KiB (0%)
Language                    : English
Default                     : No
Forced                      : No

Text #2
ID                          : 4
Format                      : UTF-8
Codec ID                    : S_TEXT/UTF8
Codec ID/Info               : UTF-8 Plain Text
Duration                    : 50 min 40 s
Bit rate                    : 40 b/s
Count of elements           : 583
Stream size                 : 15.0 KiB (0%)
Title                       : SDH
Language                    : English
Default                     : No
Forced                      : No




Deep State S01 720p AMZN WEB-DL DDP5.1 x264-NTb screenshots


Deep State S01 720p AMZN WEB-DL DDP5.1 x264-NTb screenshots Deep State S01 720p AMZN WEB-DL DDP5.1 x264-NTb screenshots Deep State S01 720p AMZN WEB-DL DDP5.1 x264-NTb screenshots Deep State S01 720p AMZN WEB-DL DDP5.1 x264-NTb screenshots



Deep State S01 720p AMZN WEB-DL DDP5.1 x264-NTb screenshots



TitleDeep State
Year2018
Genre
Rating6.9 (2,437 votes)
PlotMax Easton, a retired Secret Service operative and member of elite British/America team called The Section is coaxed back into the field to try to shut down an Iranian missile program. The situation is complicated by Max's estranged son, Harry, who has followed his father into the espionage world and as the series opens may have died in the line of duty. Written by ahmetkozan
Directorn/A
CastsAnastasia Griffith,Mark Strong,Joe Dempsie,Karima McAdams,Adrien Jolivet…
Runtime45 min
Genres
Deep State


Tags

Other releases

Same genre with Deep State S01 720p AMZN WEB-DL DDP5.1 x264-NTb

The Strain S01 720p BluRay DD5.1 x264-NTbThe Affair S02 REPACK 1080p AMZN WEBRip DD5.1 x264 - NTbNowhere Boys S03 720p AMZN WEB-DL DDP2.0 x264-NTGDetective Samoyeds 2017 ViE 1080p HDTV AAC x264Penny Dreadful S03E04 720p HDTV x264-AVSBanshee S04E04 720p HDTV x264-AVS

Comment for Deep State S01 720p AMZN WEB-DL DDP5.1 x264-NTb

Only members can create comment.