Detective Chinatown 2015 ViE 1080p WEBDL AAC x264-JadViE

Download Detective Chinatown 2015 ViE 1080p WEBDL AAC x264-JadViE 
Small DescriptionThám Tử Phố Tàu | Thuyết Minh 2.0 & Source @JadViE
Basic Info
Uploaded bySystemTN (<font color=red>JadViE</font>) at 2018-02-08 10:42:52
Action
Social
  • 14
Hot Meter
  • Views: 1244
  • Hits: 235
  • Snatched: 186 x time(s)
  • Last Action: 2018-10-21 15:37:13
Peers11 Seeder | 0 Leecher
Detective Chinatown 2015 ViE 1080p WEBDL AAC x264-JadViE screenshots


Quote
Format                      : Matroska
Format version              : Version 4 / Version 2
File size                   : 2.45 GiB
Duration                    : 2 h 15 min
Overall bit rate            : 2 579 kb/s
Encoded date                : UTC 2018-02-08 03:37:25
Writing application         : mkvmerge v17.0.0 ('Be Ur Friend') 64-bit
Writing library             : libebml v1.3.5 + libmatroska v1.4.8

Video
ID                          : 1
Format                      : AVC
Format/Info                 : Advanced Video Codec
Format profile              : High@L4
Format settings             : CABAC / 3 Ref Frames
Format settings, CABAC      : Yes
Format settings, ReFrames   : 3 frames
Codec ID                    : V_MPEG4/ISO/AVC
Duration                    : 2 h 15 min
Bit rate                    : 2 321 kb/s
Width                       : 1 920 pixels
Height                      : 720 pixels
Display aspect ratio        : 2.667
Frame rate mode             : Constant
Frame rate                  : 25.000 FPS
Color space                 : YUV
Chroma subsampling          : 4:2:0
Bit depth                   : 8 bits
Scan type                   : Progressive
Bits/(Pixel*Frame)          : 0.067
Stream size                 : 2.20 GiB (90%)
Writing library             : qiyi.com vtc-test
Language                    : Chinese
Default                     : Yes
Forced                      : No
Color range                 : Limited
Color primaries             : BT.709
Transfer characteristics    : BT.709
Matrix coefficients         : BT.709

Audio #1
ID                          : 2
Format                      : AC-3
Format/Info                 : Audio Coding 3
Codec ID                    : A_AC3
Duration                    : 2 h 15 min
Bit rate mode               : Constant
Bit rate                    : 192 kb/s
Channel(s)                  : 2 channels
Channel positions           : Front: L R
Sampling rate               : 48.0 kHz
Frame rate                  : 31.250 FPS (1536 SPF)
Bit depth                   : 16 bits
Compression mode            : Lossy
Stream size                 : 187 MiB (7%)
Title                       : @JadViE Studio
Language                    : Vietnamese
Service kind                : Complete Main
Default                     : Yes
Forced                      : Yes

Audio #2
ID                          : 3
Format                      : AAC
Format/Info                 : Advanced Audio Codec
Format profile              : HE-AAC / LC
Format settings             : Explicit
Codec ID                    : A_AAC-2
Duration                    : 2 h 15 min
Bit rate                    : 63.9 kb/s
Channel(s)                  : 2 channels
Channel positions           : Front: L R
Sampling rate               : 44.1 kHz / 22.05 kHz
Frame rate                  : 21.533 FPS (1024 SPF)
Compression mode            : Lossy
Stream size                 : 62.1 MiB (2%)
Language                    : Chinese
Default                     : No
Forced                      : No

TitleTang ren jie tan an
Year2015
Genre
Rating6.6 (1,164 votes)
Plotn/A
DirectorSicheng Chen
CastsBaoqiang Wang,Haoran Liu,He Chen,Liya Tong,Yang Xiao…
Runtime136 min
Genres
Tang ren jie tan an


Tags

Other releases

Same genre with Detective Chinatown 2015 ViE 1080p WEBDL AAC x264-JadViE

Sarbjit 2016 mHD BluRay DD5.1 x264-TRiMBrimstone 2016 mHD BluRay DD5.1 x264-TRiMSacrifice 2010 1080p BluRay x264-aBD400 Days 2015 1080p BluRay DD5.1 x264-AyakuSnabba Cash 2 2012 mHD BluRay AC3 x264-TRiMTransformers 2007 REPACK ViE mHD BluRay DD5.1 x264-TRiM

Comment for Detective Chinatown 2015 ViE 1080p WEBDL AAC x264-JadViE

Only members can create comment.