Detective Conan Anime Full 900eps - DVDRip/HDRip Vie/SubVie DD2.0 x264

Download Detective Conan Anime Full 900eps - DVDRip/HDRip Vie/SubVie DD2.0 x264 
Small Description[TOZ ĐUA XE LU] - Xuất phát: Từ 15: 00 PM ngày 08/05/2018. CONAN, Nhà tài trợ chính: Q&Q
Basic Info
Uploaded byjolli (Newbie) at 2018-05-08 10:32:25
Action
Social
  • 19
Hot Meter
  • Views: 1798
  • Hits: 203
  • Snatched: 77 x time(s)
  • Last Action: 2018-05-22 17:02:18
Peers30 Seeder | 6 Leecher
Quote
[TOZ ĐUA XE ]
 
- Thời gian: Từ 15: 00 PM ngày 08/05/2018 (GMT +7)
 
- Thể lệ tham dự:
* Mỗi tay đua (ID) chỉ được tham gia một xe (line) (Không tính ẩn danh )
* Người tham gia đua xe không limit (giới hạn) tốc độ upload trong khi đua (Tinh thần share to be shared more...)
* Những bạn có sẵn data nhưng vẫn muốn đua thì lưu data đua ở một nơi sạch sẽ, không tham gia seed chung với chủ thớt
*** Do torrent có vài film trùng với torrent cũ, nên số GB complete phải khớp số GB torrent mới tính giải

- Cơ cấu giải thưởng: Completed
 
+ Top 3:
* Người com 01': 3000 GB
* Người com 02': 2000 GB
* Người com 03': 1000 GB
 
+ Vị trí từ 04 ~ 10': 500 GB/ người
---------
=> Tổng kết, trao giải: Ngay khi đủ số lượng để trao giải.

Detective Conan Anime Full 900eps - DVDRip/HDRip Vie/SubVie DD2.0 x264 screenshots

Nội dung phim: Mở đầu câu truyện, cậu học sinh trung học 17 tuổi Shinichi Kudo bị biến thành cậu bé Conan Edogawa. Shinichi trong phần đầu của Thám tử lừng danh Conan được miêu tả là một thám tử học đường xuất sắc. Trong một lần đi chơi công viên "Miền Nhiệt đới" với cô bạn từ thuở nhỏ Ran Mori, cậu tình cờ chứng kiến vụ một án giết người, Kishida - một hành khách trong trò chơi Chuyến tàu tốc hành đã bị giết một cách dã man. Cậu đã giúp cảnh sát làm sáng tỏ vụ án. Trên đường về nhà, cậu vô tình phát hiện một vụ làm ăn mờ ám của những người đàn ông mặc toàn đồ đen. Khi chúng phát hiện ra cậu, Shinichi đã bị đánh ngất đi. Sau đó những người đàn ông áo đen đó đã cho cậu uống một thứ thuốc độc chưa qua thử nghiệm là Apotoxin-4869 (APTX 4869) với mục đích thủ tiêu cậu. Tuy nhiên chất độc đã không giết chết Kudo. Khi tỉnh lại, cậu bàng hoàng nhận thấy mình đã bị teo nhỏ lại thành hình dạng của một cậu học sinh tiểu học. Theo lời khuyên của Tiến sĩ Hiroshi Agasa, Shinichi đã che giấu tung tích, để tránh việc Tổ chức Áo đen có thể phát hiện ra rằng cậu vẫn còn sống. Khi Ran hỏi tên cậu, Shinichi đã ghép "Conan" trong tên của Sir Arthur Conan Doyle và "Edogawa" trong tên của Edogawa Rampo, buột miệng nói ra tên mình là "Conan Edogawa". Tiến sĩ Agasa đã nói Conan là một người cháu của mình, nhưng hiện ông đang quá bận rộn không thể chăm sóc cho chú bé nên đã nhờ Ran trông nom Conan giúp mình. Ran nhận lời và từ đó Conan sống tại nhà của Ran tức văn phòng thám tử Mori, vừa che giấu thân phận vừa điều tra tung tích của Tổ chức Áo đen và tìm kiếm thuốc giải độc.
 
 
 
Quote
Pack gồm : 900Eps 27 Season ViE/SubViE + 21 Movie 1997-2017 (ViE+SubViE)  -  update 05/2018

 
 
 
General
Complete name                  : D:\Movie\Detective Conan Anime 900Eps\The Movie - TRiM\21.Bản Tình Ca Màu Đỏ Thẫm (2017).mkv
Format                         : Matroska
Format version                 : Version 4 / Version 2
File size                      : 2.50 GiB
Duration                       : 1 h 52 min
Overall bit rate               : 3 189 kb/s
Movie name                     : Detective Conan: Crimson Love Letter (2017)
Encoded date                   : UTC 2018-05-03 14:41:26
Writing application            : mkvmerge v22.0.0 ('At The End Of The World') 64-bit
Writing library                : libebml v1.3.5 + libmatroska v1.4.8
Cover                          : Yes
Attachments                    : cover.jpg
 
Video
ID                             : 1
Format                         : AVC
Format/Info                    : Advanced Video Codec
Format profile                 : High@L4.1
Format settings                : CABAC / 9 Ref Frames
Format settings, CABAC         : Yes
Format settings, ReFrames      : 9 frames
Codec ID                       : V_MPEG4/ISO/AVC
Duration                       : 1 h 52 min
Bit rate                       : 2 500 kb/s
Width                          : 1 280 pixels
Height                         : 720 pixels
Display aspect ratio           : 16:9
Frame rate mode                : Constant
Frame rate                     : 23.976 (24000/1001) FPS
Color space                    : YUV
Chroma subsampling             : 4:2:0
Bit depth                      : 8 bits
Scan type                      : Progressive
Bits/(Pixel*Frame)             : 0.113
Stream size                    : 1.96 GiB (78%)
Writing library                : x264 core 152 r2851+58 429492e t_mod_Custom [8-bit@all X86_64]
Encoding settings              :  
Language                       : Vietnamese
Default                        : Yes
Forced                         : No
Color range                    : Limited
Matrix coefficients            : BT.709
 
Audio #1
ID                             : 2
Format                         : AAC
Format/Info                    : Advanced Audio Codec
Format profile                 : HE-AAC / LC
Format settings                : Explicit
Codec ID                       : A_AAC-2
Duration                       : 1 h 45 min
Bit rate                       : 48.0 kb/s
Channel(s)                     : 2 channels
Channel positions              : Front: L R
Sampling rate                  : 48.0 kHz / 24.0 kHz
Frame rate                     : 23.438 FPS (1024 SPF)
Compression mode               : Lossy
Stream size                    : 36.1 MiB (1%)
Language                       : Vietnamese
Default                        : Yes
Forced                         : No
 
Audio #2
ID                             : 3
Format                         : AC-3
Format/Info                    : Audio Coding 3
Codec ID                       : A_AC3
Duration                       : 1 h 52 min
Bit rate mode                  : Constant
Bit rate                       : 640 kb/s
Channel(s)                     : 6 channels
Channel positions              : Front: L C R, Side: L R, LFE
Sampling rate                  : 48.0 kHz
Frame rate                     : 31.250 FPS (1536 SPF)
Bit depth                      : 16 bits
Compression mode               : Lossy
Delay relative to video        : 100 ms
Stream size                    : 514 MiB (20%)
Language                       : Japanese
Service kind                   : Complete Main
Default                        : No
Forced                         : No
 
Text
ID                             : 4
Format                         : UTF-8
Codec ID                       : S_TEXT/UTF8
Codec ID/Info                  : UTF-8 Plain Text
Duration                       : 1 h 51 min
Bit rate                       : 115 b/s
Count of elements              : 2099
Stream size                    : 94.2 KiB (0%)
Language                       : Vietnamese
Default                        : Yes
Forced                         : No
 
Menu
00:00:00.000                   : en:00:00:00.000
00:04:20.594                   : en:00:04:20.594
00:13:59.922                   : en:00:13:59.922
00:17:59.996                   : en:00:17:59.996
00:27:14.007                   : en:00:27:14.007
00:35:51.316                   : en:00:35:51.316
00:42:36.971                   : en:00:42:36.971
00:51:30.796                   : en:00:51:30.796
01:00:46.142                   : en:01:00:46.142
01:11:21.110                   : en:01:11:21.110
01:19:26.804                   : en:01:19:26.804
01:24:36.822                   : en:01:24:36.822
01:29:25.151                   : en:01:29:25.151
01:34:23.116                   : en:01:34:23.116
01:40:29.482                   : en:01:40:29.482
01:44:57.291                   : en:01:44:57.291
01:48:42.266                   : en:01:48:42.266

 
Detective Conan Anime Full 900eps - DVDRip/HDRip Vie/SubVie DD2.0 x264 screenshots Detective Conan Anime Full 900eps - DVDRip/HDRip Vie/SubVie DD2.0 x264 screenshots Detective Conan Anime Full 900eps - DVDRip/HDRip Vie/SubVie DD2.0 x264 screenshots Detective Conan Anime Full 900eps - DVDRip/HDRip Vie/SubVie DD2.0 x264 screenshots
 
Detective Conan Anime Full 900eps - DVDRip/HDRip Vie/SubVie DD2.0 x264 screenshots Detective Conan Anime Full 900eps - DVDRip/HDRip Vie/SubVie DD2.0 x264 screenshots Detective Conan Anime Full 900eps - DVDRip/HDRip Vie/SubVie DD2.0 x264 screenshots Detective Conan Anime Full 900eps - DVDRip/HDRip Vie/SubVie DD2.0 x264 screenshots
 


Tags

Other releases

Same genre with Detective Conan Anime Full 900eps - DVDRip/HDRip Vie/SubVie DD2.0 x264

Zombie Hunter 2013 720p BluRay x264-WiKi Bounty Hunters 2016 WEB-DL 1080p H264 AAC2 0-TTXunLeiBlunt Force Trauma 2015 1080p BluRay DD5.1 x264-MTeamMiami Vice 2006 Theatrical 720p BluRay DD5.1 x264-VietHDScorpion S03E03 720p HDTV X264-DIMENSIONClash of the Titans 2010 ViE 1080p BluRay DTS x264-EbP

Comment for Detective Conan Anime Full 900eps - DVDRip/HDRip Vie/SubVie DD2.0 x264

Only members can create comment.