NetHD.org

Dragon Ball Kai Ep 01-98 BD 1440x1080 x264 AAC JadViE CLT (Collection)

Download Dragon Ball Kai Ep 01-98 BD 1440x1080 x264 AAC JadViE CLT (Collection) 
Small DescriptionBảy Viên Ngọc Rồng 2009 Full RAW 98 Tập
Basic Info
Uploaded bySystemTN (JadViE) at 2015-01-01 16:10:01
Action
Hot Meter
  • Views: 2212
  • Hits: 268
  • Snatched: 42 x time(s)
  • Last Action: 2019-08-19 09:33:21
Peers2 Seeder | 0 Leecher



Dragon Ball Kai Ep 01-98 BD 1440x1080 x264 AAC JadViE CLT (Collection) screenshots


Tháng 2-2009,Toei Animation thông báo rằng sau 20 năm của Dragon Ball Z thì DragonBall Z mới sẽ được sản xuất được đặt tên DragonBall Kai. Bộ phim hoạt hình mới này sẽ làm lại nội dung giống giới Dragon Ball Z và sẽ chỉnh sửa bổ sung cũng như nâng cao chất lượng hình ảnh và âm thanh tốt hơn 20 năm trước. Phim có 98 tập và Toei Animation cũng xác nhận rằng cốt truyện của DBK (DragonBall Kai) sẽ gần gũi hơn với phong cách manga hơn.

Dragon Ball Kai, bắt đầu khi Goku (Kakarot) đã có một người con tên là Gohan. Cuộc sống trên trái đất đang yên bình và rất tươi đẹp. Cho đến một ngày tên Raditz người của hành tinh Vegeta đến, hắn đã phá hủy mọi thứ và giết nhiều người. Và cũng từ đây Goku mới biết sự thật về thân thế của mình …

Video
ID                                       : 1
Format                                   : AVC
Format/Info                              : Advanced Video Codec
Format profile                           : High@L4.0
Format settings, CABAC                   : Yes
Format settings, ReFrames                : 3 frames
Codec ID                                 : avc1
Codec ID/Info                            : Advanced Video Coding
Duration                                 : 23mn 10s
Duration_FirstFrame                      : -21ms
Bit rate                                 : 4 112 Kbps
Maximum bit rate                         : 23.6 Mbps
Width                                    : 1 440 pixels
Height                                   : 1 080 pixels
Display aspect ratio                     : 4:3
Frame rate mode                          : Variable
Frame rate                               : 23.976 fps
Minimum frame rate                       : 23.976 fps
Maximum frame rate                       : 31.968 fps
Color space                              : YUV
Chroma subsampling                       : 4:2:0
Bit depth                                : 8 bits
Scan type                                : Progressive
Bits/(Pixel*Frame)                       : 0.110
Stream size                              : 681 MiB (96%)
Writing library                          : x264 core 76 r1271 496d79d
Encoding settings                        : cabac=1 / ref=3 / deblock=1:0:0 / analyse=0x3:0x113 / me=tesa / subme=9 / psy=1 / psy_rd=1.0:0.0 / mixed_ref=1 / me_range=32 / chroma_me=1 / trellis=1 / 8x8dct=1 / cqm=0 / deadzone=21,11 / chroma_qp_offset=-2 / threads=12 / nr=0 / decimate=1 / mbaff=0 / bframes=3 / b_pyramid=0 / b_adapt=1 / b_bias=0 / direct=3 / wpredb=1 / keyint=250 / keyint_min=25 / scenecut=55 / rc_lookahead=30 / rc=crf / mbtree=1 / crf=19.0 / qcomp=0.60 / qpmin=1 / qpmax=51 / qpstep=20 / ip_ratio=1.40 / aq=1:0.00
Encoded date                             : UTC 2009-12-11 07:59:05
Tagged date                              : UTC 2009-12-11 09:55:45

Audio
ID                                       : 2
Format                                   : AAC
Format/Info                              : Advanced Audio Codec
Format profile                           : LC
Codec ID                                 : 40
Duration                                 : 23mn 10s
Bit rate mode                            : Variable
Bit rate                                 : 183 Kbps
Maximum bit rate                         : 217 Kbps
Channel(s)                               : 2 channels
Channel positions                        : Front: L R
Sampling rate                            : 48.0 KHz
Compression mode                         : Lossy
Stream size                              : 30.3 MiB (4%)
Encoded date                             : UTC 2009-12-11 09:55:33
Tagged date                              : UTC 2009-12-11 09:55:45

Dragon Ball Kai Ep 01-98 BD 1440x1080 x264 AAC JadViE CLT (Collection) screenshots

TitleDragon Ball Kai: Doragon bôru kai
Year2009
Genre
Rating8.2 (18,552 votes)
PlotIn February of 2009, Toei Animation announced that as an honor to 20 years of Dragon Ball Z, they will begin the production of a renewed DragonBall Z, named Dragon Ball Kai. This new anime chronicles the plot of DBZ and consists of parts from the original anime which are edited to a better quality and with new voices. Toei Animation also confirmed that the plot of DBK will be closer to manga style. Written by dreamian
Directorn/A
CastsMasako Nozawa,Jôji Yanami,Richard Ian Cox,Scott McNeil,Sean Schemmel…
Runtime24 min
Dragon Ball Kai: Doragon bôru kai


Monsters University 2013 ViE mHD BluRay DD5.1 x264-TRiMBatman Year One 2011 1080p BluRay DTS x264 -WiKiGet a Horse! 2013 1080p BluRay DTS x264-LolHDTom And Jerry's Giant Adventure 2013 ViE 720p WEB-DL H264-VAVHow to Train Your Dragon 2 2014 ViE mHD Bluray DD5.1 x264-EPiKCinderella 1950 mHD BluRay DD5.1 x264-TRiM

Only members can create comment.