Drunken Master III 1994 ViE 1080p WEB-DL DD2.0 x264-CHDWEB

Download Drunken Master III 1994 ViE 1080p WEB-DL DD2.0 x264-CHDWEB 
Small DescriptionTúy Quyền 3 l Lưu Đức Hoa l Thuyết Minh syned by anvietcanh2@netHD.org
Basic Info
Uploaded byanvietcanh2 (Uploader) at 2017-03-14 10:33:42
Action
Social
  • 3
Hot Meter
  • Views: 281
  • Hits: 71
  • Snatched: 56 x time(s)
  • Last Action: 2018-07-20 06:43:10
Peers2 Seeder | 0 Leecher
 Drunken Master III 1994 ViE 1080p WEB-DL DD2.0 x264-CHDWEB screenshots
Tại thời điểm chuyển giao thế kỷ của Trung Quốc, White Lotus lô hội để đặt nham hiểm Mãn Châu Hoàng đế Viên Thế Khải (William Hồ) để trở thành Hoàng đế của Trung Quốc. Tuy nhiên, anh ta cần phải đưa ra một vành đai Jade sở hữu bởi vị hôn phu của mình công chúa Sum Yuk ( Michelle Reis ). White Lotus Hội được Yeung Kwan ( Lưu Đức Hoa ) để có được nàng công chúa. Tuy nhiên, Yeung thực sự là một nhà lãnh đạo nổi dậy làm việc cho Sun Yat-sen và ông bắt cóc Sum Yuk và tìm tị nạn tại Po Chí Lâm bệnh viện thuộc sở hữu của Wong Kei-ying ( Adam Cheng ) với con trai tinh nghịch của ông Wong Fei-hung (Willie Chi) . Sau đó, Phi Hồng được tham gia với Yeung và Sum Yuk và kết thúc vào thời gian với nhau. Trên đường đi, Fei-hung sau biết những bí mật của Drunken Boxing từ chủ cũ Bác Yan ( Lau Kar-Leung )
General
Unique ID                                : 182349581822663903093786680862327428401 (0x892F4082EECB916DBABDD3EDC353D531)
Complete name                            : E:\Lưu Đức Hoa\Upload\Drunken Master III 1994 ViE 1080p WEB-DL DD2.0 x264-CHDWEB.mkv
Format                                   : Matroska
Format version                           : Version 4 / Version 2
File size                                : 2.22 GiB
Duration                                 : 1 h 32 min
Overall bit rate                         : 3 456 kb/s
Encoded date                             : UTC 2017-03-14 02:13:46
Writing application                      : mkvmerge v8.4.0 ('A better way to fly') 32bit
Writing library                          : libebml v1.3.1 + libmatroska v1.4.2

Video
ID                                       : 1
Format                                   : AVC
Format/Info                              : Advanced Video Codec
Format profile                           : High@L4
Format settings, CABAC                   : Yes
Format settings, ReFrames                : 4 frames
Codec ID                                 : V_MPEG4/ISO/AVC
Duration                                 : 1 h 32 min
Bit rate                                 : 3 009 kb/s
Width                                    : 1 920 pixels
Height                                   : 1 072 pixels
Display aspect ratio                     : 16:9
Frame rate mode                          : Constant
Frame rate                               : 24.000 FPS
Color space                              : YUV
Chroma subsampling                       : 4:2:0
Bit depth                                : 8 bits
Scan type                                : Progressive
Bits/(Pixel*Frame)                       : 0.061
Stream size                              : 1.94 GiB (87%)
Default                                  : Yes
Forced                                   : No

Audio #1
ID                                       : 2
Format                                   : AAC
Format/Info                              : Advanced Audio Codec
Format profile                           : LC
Codec ID                                 : A_AAC
Duration                                 : 1 h 32 min
Bit rate                                 : 192 kb/s
Channel(s)                               : 2 channels
Channel positions                        : Front: L R
Sampling rate                            : 44.1 kHz
Frame rate                               : 43.066 FPS (1024 spf)
Compression mode                         : Lossy
Stream size                              : 126 MiB (6%)
Default                                  : No
Forced                                   : No

Audio #2
ID                                       : 3
Format                                   : MPEG Audio
Format version                           : Version 1
Format profile                           : Layer 3
Codec ID                                 : A_MPEG/L3
Codec ID/Hint                            : MP3
Duration                                 : 1 h 30 min
Bit rate mode                            : Constant
Bit rate                                 : 256 kb/s
Channel(s)                               : 2 channels
Sampling rate                            : 44.1 kHz
Frame rate                               : 38.281 FPS (1152 spf)
Compression mode                         : Lossy
Stream size                              : 166 MiB (7%)
Title                                    : Thuyết minh-Syned by anvietcanh2@netHD.org
Language                                 : Vietnamese
Default                                  : Yes
Forced                                   : Yes
Drunken Master III 1994 ViE 1080p WEB-DL DD2.0 x264-CHDWEB screenshots
TitleJui kuen III
Year1994
GenreAction
Rating5.1 (306 votes)
PlotSet around the turn of the century in China, the White Lotus Society plots to put the next Emperor on the throne. To do this they want their protege to marry the Princess Sun Yu who possesses an important jade ring. They dispatch Yueng Kwan to fetch her. However, Yueng Kwan is a patriot, working for the revolutionary forces of Sun Yat Sen. He abducts Sun Yu and finds refuge with the father of the future hero Wong Fei Hung. Written by Brian Rawnsley
DirectorChia-Liang Liu
CastsAndy Lau / Michelle Reis / Willie Chi / Simon Yam / Chia-Liang Liu…
Runtime91 min
GenresAction
Jui kuen III


Tags

Other releases

Same genre with Drunken Master III 1994 ViE 1080p WEB-DL DD2.0 x264-CHDWEB

Kingsman The Golden Circle 2017 ViE mHD BluRay DD5.1 x264-[TRiM-JadViE]Teenage Mutant Ninja Turtles 2014 1080p BluRay DD 5.1 x264-DONTorrente El Brazo Tonto De La Ley 1998 720p BluRay DTS x264-DONLine Walker 2016 720p BluRay DD5.1 x264-WiKiThe Glimmer Man 1996 ViE 1080p WEB-DL DD5.1 x264-MXBAn Eternal Combat 1984 ViE 720p HDTV DD2.0 x264

Comment for Drunken Master III 1994 ViE 1080p WEB-DL DD2.0 x264-CHDWEB

Only members can create comment.