Early Man 2018 1080p WEBRip DD5.1 x264-SHITBOX

Download Early Man 2018 1080p WEBRip DD5.1 x264-SHITBOX 
Small DescriptionNgôi làng tiền sử
Basic Info
Uploaded bydpc (Uploader) at 2018-05-11 21:08:54
Action
Social
  • 8
Hot Meter
  • Views: 951
  • Hits: 120
  • Snatched: 96 x time(s)
  • Last Action: 2018-09-22 22:45:04
Peers7 Seeder | 0 Leecher
Early Man 2018 1080p WEBRip DD5.1 x264-SHITBOX screenshots


"Khi đồ đá đấu với đồ đồng"
Ngày xửa ngày xưa, khi mà người tiền sử và những chú voi ma-mút còn sinh sống trên Trái Đất... Dug và đồng đội "lợn lòi" của mình là Hognob cùng thống nhất bộ lạc và bảo vệ quê hương. Kẻ thù xảo quyệt của họ là Chúa tể Nooth cùng thành phố Đồ Đồng. 
Bộ phim hoạt hình với kinh phí $50.000,000 này do studio Aardman sản xuất - studio vốn đã quen thuộc với những bộ phim cực kỳ dễ thương như Phi Đội Gà Bay, Wallace & Gromit, Shaun the Sheep... Đặc biệt còn có sự góp mặt lồng tiếng của các diễn viên nổi tiếng Tom Hiddleston, Maisie Williams, Eddie Redmayne.



Early Man 2018 1080p WEBRip DD5.1 x264-SHITBOX screenshots


Quote
Video
ID                                       : 1
Format                                   : AVC
Format/Info                              : Advanced Video Codec
Format profile                           : High@L4.1
Format settings                          : CABAC / 4 Ref Frames
Format settings, CABAC                   : Yes
Format settings, ReFrames                : 4 frames
Codec ID                                 : V_MPEG4/ISO/AVC
Duration                                 : 1 h 24 min
Bit rate                                 : 4 260 kb/s
Width                                    : 1 920 pixels
Height                                   : 1 040 pixels
Display aspect ratio                     : 1.85:1
Frame rate mode                          : Constant
Frame rate                               : 29.970 (30000/1001) FPS
Color space                              : YUV
Chroma subsampling                       : 4:2:0
Bit depth                                : 8 bits
Scan type                                : Progressive
Bits/(Pixel*Frame)                       : 0.071
Stream size                              : 2.52 GiB (90%)
Title                                    : Early.Man.2018.1080p.WEBRip.DD5.1.x264-SHITBOX
Writing library                          : x264 core 130 r2273 b3065e6
Encoding settings                        : cabac=1 / ref=1 / deblock=1:0:0 / analyse=0x3:0x113 / me=hex / subme=2 / psy=1 / psy_rd=1.00:0.00 / mixed_ref=0 / me_range=16 / chroma_me=1 / trellis=0 / 8x8dct=1 / cqm=0 / deadzone=21,11 / fast_pskip=1 / chroma_qp_offset=0 / threads=6 / lookahead_threads=2 / sliced_threads=0 / nr=0 / decimate=1 / interlaced=0 / bluray_compat=0 / constrained_intra=0 / bframes=3 / b_pyramid=2 / b_adapt=1 / b_bias=0 / direct=1 / weightb=1 / open_gop=0 / weightp=1 / keyint=300 / keyint_min=30 / scenecut=40 / intra_refresh=0 / rc_lookahead=10 / rc=abr / mbtree=1 / bitrate=4260 / ratetol=1.0 / qcomp=0.60 / qpmin=0 / qpmax=69 / qpstep=4 / vbv_maxrate=62500 / vbv_bufsize=78125 / nal_hrd=none / ip_ratio=1.40 / aq=1:1.00
Language                                 : English
Default                                  : Yes
Forced                                   : No
Color range                              : Limited
Color primaries                          : BT.709
Transfer characteristics                 : BT.709
Matrix coefficients                      : BT.709

Audio
ID                                       : 2
Format                                   : AC-3
Format/Info                              : Audio Coding 3
Codec ID                                 : A_AC3
Duration                                 : 1 h 24 min
Bit rate mode                            : Constant
Bit rate                                 : 448 kb/s
Channel(s)                               : 6 channels
Channel positions                        : Front: L C R, Side: L R, LFE
Sampling rate                            : 48.0 kHz
Frame rate                               : 31.250 FPS (1536 SPF)
Bit depth                                : 16 bits
Compression mode                         : Lossy
Stream size                              : 272 MiB (10%)
Title                                    : Early.Man.2018.1080p.WEBRip.DD5.1.x264-SHITBOX
Language                                 : English
Service kind                             : Complete Main
Default                                  : Yes
Forced                                   : No



Early Man 2018 1080p WEBRip DD5.1 x264-SHITBOX screenshots


Early Man 2018 1080p WEBRip DD5.1 x264-SHITBOX screenshots
Early Man 2018 1080p WEBRip DD5.1 x264-SHITBOX screenshots
Early Man 2018 1080p WEBRip DD5.1 x264-SHITBOX screenshots



Early Man 2018 1080p WEBRip DD5.1 x264-SHITBOX screenshots



TitleNguoi Nguyen Thuy
Year2018
Genre
Rating6.1 (11,407 votes)
Plotn/A
DirectorNick Park
CastsEddie Redmayne,Tom Hiddleston,Maisie Williams,Timothy Spall,Miriam Margolyes…
Runtime89 min
Genres
Nguoi Nguyen Thuy


Tags

Other releases

Same genre with Early Man 2018 1080p WEBRip DD5.1 x264-SHITBOX

Pom Poko 1994 720p BluRay x264-TayTO Appleseed Alpha 2014 ViE mHD BluRay DD5.1 x264-EPiKThe Emoji Movie 2017 mHD BluRay DD5.1 x264-TRiMDespicable Me 3 2017 720p BluRay DD5.1 x264-TayTOPokémon / Pocket Monsters: Odoru Pokémon Himitsu Kichi (2003) R2J NTSC DVD5Easter Yeggs 1947 720p BluRay DD1.0 x264-EbP

Comment for Early Man 2018 1080p WEBRip DD5.1 x264-SHITBOX

Only members can create comment.