Eight Below 2006 Open Matte 1080p WEB-DL DD5.1 H.264-spartanec163

Download Eight Below 2006 Open Matte 1080p WEB-DL DD5.1 H.264-spartanec163 
Small DescriptionIn the Antarctic, after an expedition with Dr. Davis McClaren, the sled dog trainer Jerry Shepherd has to leave the polar base with his colleagues due to the proximity of a heavy snow storm. He ties his dogs to be rescued after, but the mission is called-off and the dogs are left alone at their own fortune. For six months, Jerry tries to find a sponsor for a rescue mission while his dogs fight for survival. Written by Claudio Carvalho, Rio de Janeiro, Brazil
Basic Info
Uploaded byAnonymous at 2018-10-12 09:26:23
Action
Social
  • 2
Hot Meter
  • Views: 56
  • Hits: 8
  • Snatched: 4 x time(s)
  • Last Action: 2018-10-19 03:13:15
Peers3 Seeder | 0 Leecher
Eight Below 2006 Open Matte 1080p WEB-DL DD5.1 H.264-spartanec163 screenshots













Eight Below 2006 Open Matte 1080p WEB-DL DD5.1 H.264-spartanec163 screenshots


General
Unique ID                                : 232693184255051737929383983283662628327 (0xAF0F13BF85F03B37BA49A04D9DEA25E7)
Complete name                            : F:\MOVIE\Eight.Below.2006.Open.Matte.1080p.WEB-DL.2xRus.Eng.mkv
Format                                   : Matroska
Format version                           : Version 4 / Version 2
File size                                : 11.0 GiB
Duration                                 : 2 h 0 min
Overall bit rate mode                    : Variable
Overall bit rate                         : 13.1 Mb/s
Movie name                               : Eight.Below.2006.Open.Matte.1080p.WEB-DL.2xRus.Eng-spartanec163
Encoded date                             : UTC 2017-11-19 12:37:38
Writing application                      : mkvmerge v8.3.0 ('Over the Horizon') 64bit
Writing library                          : libebml v1.3.1 + libmatroska v1.4.2

Video
ID                                       : 1
Format                                   : AVC
Format/Info                              : Advanced Video Codec
Format profile                           : High@L4
Format settings                          : CABAC / 4 Ref Frames
Format settings, CABAC                   : Yes
Format settings, RefFrames               : 4 frames
Codec ID                                 : V_MPEG4/ISO/AVC
Duration                                 : 2 h 0 min
Bit rate mode                            : Variable
Bit rate                                 : 10.8 Mb/s
Maximum bit rate                         : 15.0 Mb/s
Width                                    : 1 920 pixels
Height                                   : 1 080 pixels
Display aspect ratio                     : 16:9
Frame rate mode                          : Constant
Frame rate                               : 23.976 (24000/1001) FPS
Color space                              : YUV
Chroma subsampling                       : 4:2:0
Bit depth                                : 8 bits
Scan type                                : Progressive
Bits/(Pixel*Frame)                       : 0.217
Stream size                              : 9.09 GiB (82%)
Title                                    : WEB-DL 1080p (Amazon)
Language                                 : English
Default                                  : Yes
Forced                                   : No
Color range                              : Limited
Color primaries                          : BT.709
Transfer characteristics                 : BT.709
Matrix coefficients                      : BT.709

Audio #1
ID                                       : 2
Format                                   : AC-3
Format/Info                              : Audio Coding 3
Codec ID                                 : A_AC3
Duration                                 : 2 h 0 min
Bit rate mode                            : Constant
Bit rate                                 : 640 kb/s
Channel(s)                               : 6 channels
Channel positions                        : Front: L C R, Side: L R, LFE
Sampling rate                            : 48.0 kHz
Frame rate                               : 31.250 FPS (1536 SPF)
Bit depth                                : 16 bits
Compression mode                         : Lossy
Stream size                              : 553 MiB (5%)
Title                                    : AC3 5.1 640Kbps (Дубляж - BluRay)
Language                                 : Russian
Service kind                             : Complete Main
Default                                  : Yes
Forced                                   : No

Audio #2
ID                                       : 3
Format                                   : AC-3
Format/Info                              : Audio Coding 3
Codec ID                                 : A_AC3
Duration                                 : 2 h 0 min
Bit rate mode                            : Constant
Bit rate                                 : 640 kb/s
Channel(s)                               : 6 channels
Channel positions                        : Front: L C R, Side: L R, LFE
Sampling rate                            : 48.0 kHz
Frame rate                               : 31.250 FPS (1536 SPF)
Bit depth                                : 16 bits
Compression mode                         : Lossy
Stream size                              : 552 MiB (5%)
Title                                    : AC3 5.1 640Kbps (Авторский, одноголосый - Ю. Немахов)
Language                                 : Russian
Service kind                             : Complete Main
Default                                  : No
Forced                                   : No

Audio #3
ID                                       : 4
Format                                   : E-AC-3
Format/Info                              : Enhanced Audio Coding 3
Codec ID                                 : A_EAC3
Duration                                 : 2 h 0 min
Bit rate mode                            : Constant
Bit rate                                 : 640 kb/s
Channel(s)                               : 6 channels
Channel positions                        : Front: L C R, Side: L R, LFE
Sampling rate                            : 48.0 kHz
Frame rate                               : 187.500 FPS (256 SPF)
Compression mode                         : Lossy
Stream size                              : 552 MiB (5%)
Title                                    : E-AC3 5.1 640Kbps (Оригинал - Amazon)
Language                                 : English
Service kind                             : Complete Main
Default                                  : No
Forced                                   : No

Audio #4
ID                                       : 5
Format                                   : AC-3
Format/Info                              : Audio Coding 3
Codec ID                                 : A_AC3
Duration                                 : 2 h 0 min
Bit rate mode                            : Constant
Bit rate                                 : 192 kb/s
Channel(s)                               : 2 channels
Channel positions                        : Front: L R
Sampling rate                            : 48.0 kHz
Frame rate                               : 31.250 FPS (1536 SPF)
Bit depth                                : 16 bits
Compression mode                         : Lossy
Stream size                              : 166 MiB (1%)
Title                                    : AC3 2.0 192Kbps (Commentary by Frank Marshall and Patrick Crowley)
Language                                 : English
Service kind                             : Complete Main
Default                                  : No
Forced                                   : No

Audio #5
ID                                       : 6
Format                                   : AC-3
Format/Info                              : Audio Coding 3
Codec ID                                 : A_AC3
Duration                                 : 2 h 0 min
Bit rate mode                            : Constant
Bit rate                                 : 192 kb/s
Channel(s)                               : 2 channels
Channel positions                        : Front: L R
Sampling rate                            : 48.0 kHz
Frame rate                               : 31.250 FPS (1536 SPF)
Bit depth                                : 16 bits
Compression mode                         : Lossy
Stream size                              : 166 MiB (1%)
Title                                    : AC3 2.0 192Kbps (Commentary by Frank Marshall and Paul Walker)
Language                                 : English
Service kind                             : Complete Main
Default                                  : No
Forced                                   : No

Text #1
ID                                       : 7
Format                                   : UTF-8
Codec ID                                 : S_TEXT/UTF8
Codec ID/Info                            : UTF-8 Plain Text
Duration                                 : 1 h 52 min
Bit rate                                 : 0 b/s
Count of elements                        : 19
Stream size                              : 592 Bytes (0%)
Title                                    : Captions
Language                                 : Russian
Default                                  : Yes
Forced                                   : No

Text #2
ID                                       : 8
Format                                   : UTF-8
Codec ID                                 : S_TEXT/UTF8
Codec ID/Info                            : UTF-8 Plain Text
Duration                                 : 1 h 54 min
Bit rate                                 : 63 b/s
Count of elements                        : 992
Stream size                              : 53.0 KiB (0%)
Title                                    : Full, BluRay
Language                                 : Russian
Default                                  : No
Forced                                   : No

Text #3
ID                                       : 9
Format                                   : UTF-8
Codec ID                                 : S_TEXT/UTF8
Codec ID/Info                            : UTF-8 Plain Text
Duration                                 : 1 h 51 min
Bit rate                                 : 40 b/s
Count of elements                        : 947
Stream size                              : 33.1 KiB (0%)
Title                                    : Full, BluRay
Language                                 : English
Default                                  : No
Forced                                   : No

Text #4
ID                                       : 10
Format                                   : UTF-8
Codec ID                                 : S_TEXT/UTF8
Codec ID/Info                            : UTF-8 Plain Text
Duration                                 : 1 h 51 min
Bit rate                                 : 47 b/s
Count of elements                        : 1219
Stream size                              : 38.5 KiB (0%)
Title                                    : Full, SDH. Amazon
Language                                 : English
Default                                  : No
Forced                                   : No

Text #5
ID                                       : 11
Format                                   : UTF-8
Codec ID                                 : S_TEXT/UTF8
Codec ID/Info                            : UTF-8 Plain Text
Duration                                 : 1 h 52 min
Bit rate                                 : 164 b/s
Count of elements                        : 1961
Stream size                              : 136 KiB (0%)
Title                                    : Commentary by Frank Marshall and Patrick Crowley
Language                                 : Russian
Default                                  : No
Forced                                   : No

Text #6
ID                                       : 12
Format                                   : UTF-8
Codec ID                                 : S_TEXT/UTF8
Codec ID/Info                            : UTF-8 Plain Text
Duration                                 : 1 h 52 min
Bit rate                                 : 148 b/s
Count of elements                        : 1803
Stream size                              : 123 KiB (0%)
Title                                    : Commentary by Frank Marshall and Paul Walker
Language                                 : Russian
Default                                  : No
Forced                                   : No













Eight Below 2006 Open Matte 1080p WEB-DL DD5.1 H.264-spartanec163 screenshots


Eight Below 2006 Open Matte 1080p WEB-DL DD5.1 H.264-spartanec163 screenshotsEight Below 2006 Open Matte 1080p WEB-DL DD5.1 H.264-spartanec163 screenshotsEight Below 2006 Open Matte 1080p WEB-DL DD5.1 H.264-spartanec163 screenshots
Eight Below 2006 Open Matte 1080p WEB-DL DD5.1 H.264-spartanec163 screenshotsEight Below 2006 Open Matte 1080p WEB-DL DD5.1 H.264-spartanec163 screenshotsEight Below 2006 Open Matte 1080p WEB-DL DD5.1 H.264-spartanec163 screenshots

TitleEight Below
Year2006
Genre
Rating7.3 (54,779 votes)
PlotIn the Antarctic, after an expedition with Dr. Davis McClaren, the sled dog trainer Jerry Shepherd has to leave the polar base with his colleagues due to the proximity of a heavy snow storm. He ties his dogs to be rescued after, but the mission is called-off and the dogs are left alone at their own fortune. For six months, Jerry tries to find a sponsor for a rescue mission while his dogs fight for survival. Written by Claudio Carvalho, Rio de Janeiro, Brazil
DirectorFrank Marshall
CastsPaul Walker,Bruce Greenwood,Moon Bloodgood,Wendy Crewson,Gerard Plunkett…
Runtime120 min
Genres
Eight Below


Tags

Other releases

Same genre with Eight Below 2006 Open Matte 1080p WEB-DL DD5.1 H.264-spartanec163

The Time Machine 1960 720p BluRay DD5.1 x264-DONThe Twilight Saga: Eclipse 2010 mHD BluRay DD5.1 x264-TRiM Pirates 2014 720p BluRay DD5.1 x264-VietHDThe Jungle Book 2016 720p BluRay DTS x264-VietHDNight at the Museum: Battle of the Smithsonian 2009 Open Matte 1080p WEB-DL DTS H.264 47 Meters Down 2017 1080p Blu-ray AVC DTS-HD MA 5.1-BAKED

Comment for Eight Below 2006 Open Matte 1080p WEB-DL DD5.1 H.264-spartanec163

Only members can create comment.