NetHD.org

Erotic Ghost Story 1990 Bluray 1080p x264 FLAC 2.0-PTer

Download Erotic Ghost Story 1990 Bluray 1080p x264 FLAC 2.0-PTer 
Small DescriptionThree vixens have meditated for 1,000 years to able to shed their animal natures and become human. For the final month of their rigors, they have moved near a village where women pray to a god of fertility. One sister visits the god's temple and thinks lustful thoughts. As she leaves, a priest confronts her, warning of dire consequences and of demons that will try to stop the vixens' transformation. Soon, the youngest sister saves a poor scholar from bandits and becomes enamored of him. Each…
Basic Info
Uploaded byAnonymous at 2019-11-05 11:41:37
Action
Hot Meter
  • Views: 1842
  • Hits: 290
  • Snatched: 238 x time(s)
  • Last Action: 2020-06-03 07:27:37
Peers6 Seeder | 0 Leecher



General
Unique ID : 49547767629870042437645367253825984296 (0x25468D8D2FD6FA5867AE7FB74BEB9728)
Complete name : Erotic.Ghost.Story.1990.Bluray.1080p.x264.FLAC.2.0-PTer.mkv
Format : Matroska
Format version : Version 4
File size : 5.81 GiB
Duration : 1 h 29 min
Overall bit rate mode : Variable
Overall bit rate : 9 308 kb/s
Encoded date : UTC 2019-11-03 14:42:07
Writing application : mkvmerge v38.0.0 ('The Silent Type') 64-bit
Writing library : libebml v1.3.9 + libmatroska v1.5.2

Video
ID : 1
Format : AVC
Format/Info : Advanced Video Codec
Format profile : High@L4.1
Format settings : CABAC / 4 Ref Frames
Format settings, CABAC : Yes
Format settings, Reference frames : 4 frames
Codec ID : V_MPEG4/ISO/AVC
Duration : 1 h 29 min
Bit rate : 8 121 kb/s
Width : 1 920 pixels
Height : 1 080 pixels
Display aspect ratio : 16:9
Frame rate mode : Constant
Frame rate : 24.000 FPS
Color space : YUV
Chroma subsampling : 4:2:0
Bit depth : 8 bits
Scan type : Progressive
Bits/(Pixel*Frame) : 0.163
Stream size : 5.07 GiB (87%)
Title : qqboy1017@pter.club
Writing library : x264 core 148 r2692+46 0f71ed5 7mod [8-bit@all X86_64]
Encoding settings : cabac=1 / ref=4 / deblock=1:-3:-3 / analyse=0x3:0x113 / me=umh / subme=11 / psy=1 / fade_compensate=0.00 / psy_rd=1.00:0.00 / mixed_ref=1 / me_range=48 / chroma_me=1 / trellis=2 / 8x8dct=1 / cqm=0 / deadzone=11,6 / fast_pskip=0 / chroma_qp_offset=-2 / threads=24 / lookahead_threads=4 / sliced_threads=0 / nr=0 / decimate=0 / interlaced=0 / bluray_compat=0 / constrained_intra=0 / fgo=0 / bframes=8 / b_pyramid=2 / b_adapt=2 / b_bias=0 / direct=3 / weightb=1 / open_gop=0 / weightp=2 / keyint=250 / keyint_min=24 / scenecut=40 / intra_refresh=0 / rc_lookahead=60 / rc=crf / mbtree=0 / crf=21.5000 / qcomp=0.60 / qpmin=0:0:0 / qpmax=32:32:32 / qpstep=4 / vbv_maxrate=40000 / vbv_bufsize=30000 / crf_max=0.0 / nal_hrd=none / filler=0 / ip_ratio=1.30 / pb_ratio=1.20 / aq=4:0.80 / aq-sensitivity=10.00 / aq-factor=1.00:1.00:1.00 / aq2=0 / aq3=0
Language : Chinese
Default : Yes
Forced : No
Color range : Limited
Color primaries : BT.709
Transfer characteristics : BT.709
Matrix coefficients : BT.709

Audio
ID : 2
Format : FLAC
Format/Info : Free Lossless Audio Codec
Codec ID : A_FLAC
Duration : 1 h 29 min
Bit rate mode : Variable
Bit rate : 1 167 kb/s
Channel(s) : 2 channels
Channel layout : L R
Sampling rate : 48.0 kHz
Frame rate : 11.719 FPS (4096 SPF)
Bit depth : 24 bits
Compression mode : Lossless
Stream size : 746 MiB (13%)
Writing library : libFLAC 1.2.1 (UTC 2007-09-17)
Language : Chinese
Default : Yes
Forced : No

Text #1
ID : 3
Format : PGS
Muxing mode : zlib
Codec ID : S_HDMV/PGS
Codec ID/Info : Picture based subtitle format used on BDs/HD-DVDs
Duration : 1 h 25 min
Bit rate : 18.2 kb/s
Count of elements : 1016
Stream size : 11.1 MiB (0%)
Title : 简中
Language : Chinese
Default : Yes
Forced : No

Text #2
ID : 4
Format : PGS
Muxing mode : zlib
Codec ID : S_HDMV/PGS
Codec ID/Info : Picture based subtitle format used on BDs/HD-DVDs
Duration : 1 h 25 min
Bit rate : 18.5 kb/s
Count of elements : 1016
Stream size : 11.3 MiB (0%)
Title : 繁中
Language : Chinese
Default : No
Forced : No

Text #3
ID : 5
Format : PGS
Muxing mode : zlib
Codec ID : S_HDMV/PGS
Codec ID/Info : Picture based subtitle format used on BDs/HD-DVDs
Duration : 1 h 25 min
Bit rate : 18.3 kb/s
Count of elements : 1016
Stream size : 11.1 MiB (0%)
Title : 英文
Language : English
Default : No
Forced : No

Menu
00:00:00.000 : :绗?01 绔?
00:08:39.708 : :绗?02 绔?
00:15:25.958 : :绗?03 绔?
00:20:45.708 : :绗?04 绔?
00:29:15.208 : :绗?05 绔?
00:36:58.333 : :绗?06 绔?
00:44:18.167 : :绗?07 绔?
00:51:29.750 : :绗?08 绔?
00:59:25.292 : :绗?09 绔?
01:06:17.500 : :绗?10 绔?
01:12:48.167 : :绗?11 绔?
01:19:30.417 : :绗?12 绔?


Erotic Ghost Story 1990 Bluray 1080p x264 FLAC 2.0-PTer screenshots Erotic Ghost Story 1990 Bluray 1080p x264 FLAC 2.0-PTer screenshots Erotic Ghost Story 1990 Bluray 1080p x264 FLAC 2.0-PTer screenshots Erotic Ghost Story 1990 Bluray 1080p x264 FLAC 2.0-PTer screenshots Erotic Ghost Story 1990 Bluray 1080p x264 FLAC 2.0-PTer screenshots Erotic Ghost Story 1990 Bluray 1080p x264 FLAC 2.0-PTer screenshots Erotic Ghost Story 1990 Bluray 1080p x264 FLAC 2.0-PTer screenshots Erotic Ghost Story 1990 Bluray 1080p x264 FLAC 2.0-PTer screenshots Erotic Ghost Story 1990 Bluray 1080p x264 FLAC 2.0-PTer screenshots Erotic Ghost Story 1990 Bluray 1080p x264 FLAC 2.0-PTer screenshots Erotic Ghost Story 1990 Bluray 1080p x264 FLAC 2.0-PTer screenshots

TitleLiu jai yim taam
Year1990
GenreFantasy
Rating5.7 (611 votes)
PlotThree vixens have meditated for 1,000 years to able to shed their animal natures and become human. For the final month of their rigors, they have moved near a village where women pray to a god of fertility. One sister visits the god's temple and thinks lustful thoughts. As she leaves, a priest confronts her, warning of dire consequences and of demons that will try to stop the vixens' transformation.
DirectorNgai Choi Lam
CastsAmy Yip / Hitomi Kudô / So Man / Lap-Man Sinn / Chi Jan Ha…
Runtime90 min
Liu jai yim taam


The Next Generation Patoreibâ: Shuto kessen 2015 ViE 720p BluRay DD5.1x264-WiKi Instant Family 2018 1080p BluRay DD5.1 x264-DONThe White Buffalo 1977 720p BluRay FLAC 2 0 x264-SbR Ready Player One 2018 repack BluRay 1080p DTS x264-VietHDSausalito 2000 ViE 1080p WEB-DL DD2.0 x264-OurTVClash of the Titans 2010 1080p BluRay DD5.1 x264-EbP