NetHD.org

Family Guy S01 PROPER NTSC DVD DD2 0 x264-CtrlSD

Download Family Guy S01 PROPER NTSC DVD DD2 0 x264-CtrlSD 
Small DescriptionSick, twisted and politically incorrect, the animated series features the adventures of the Griffin family. Endearingly ignorant Peter and his stay-at-home wife Lois reside in Quahog, R.I., and have three kids. Meg, the eldest child, is a social outcast, and teenage Chris is awkward and clueless when it comes to the opposite sex. The youngest, Stewie, is a genius baby bent on killing his mother and destroying the world. The talking dog, Brian, keeps Stewie in check while sipping martinis and…
Basic Info
Uploaded byAnonymous at 2020-06-29 19:48:49
Action
Hot Meter
  • Views: 80
  • Hits: 79
  • Snatched: 15 x time(s)
  • Last Action: 2020-07-10 22:25:17
Peers7 Seeder | 0 Leecher



General
Unique ID                   : 198510887422478702476958004506831594202 (0x9557CE6592BB0CD894D481B2799BA2DA)
Complete name               : E:\Family Guy\Family.Guy.S01.PROPER.NTSC.DVD.DD2.0.x264-CtrlSD\Family.Guy.S01E01.PROPER.NTSC.DVD.DD2.0.x264-CtrlSD.mkv
Format                      : Matroska
Format version              : Version 2
File size                   : 180 MiB
Duration                    : 22 min 32 s
Overall bit rate            : 1 114 kb/s
Encoded date                : UTC 2009-05-30 17:23:56
Writing application         : mkvmerge v2.8.0 ('The Tree') built on May 14 2009 09:28:39
Writing library             : libebml v0.7.7 + libmatroska v0.8.1

Video
ID                          : 1
Format                      : AVC
Format/Info                 : Advanced Video Codec
Format profile              : High@L4
Format settings             : CABAC / 16 Ref Frames
Format settings, CABAC      : Yes
Format settings, Reference  : 16 frames
Codec ID                    : V_MPEG4/ISO/AVC
Duration                    : 22 min 32 s
Bit rate                    : 920 kb/s
Width                       : 716 pixels
Height                      : 480 pixels
Display aspect ratio        : 4:3
Frame rate mode             : Constant
Frame rate                  : 23.976 (24000/1001) FPS
Color space                 : YUV
Chroma subsampling          : 4:2:0
Bit depth                   : 8 bits
Scan type                   : Progressive
Bits/(Pixel*Frame)          : 0.112
Stream size                 : 145 MiB (81%)
Writing library             : x264 core 67 r1153M 7b6ce6a
Encoding settings           : cabac=1 / ref=16 / deblock=1:1:1 / analyse=0x3:0x133 / me=tesa / subme=9 / psy_rd=0.6:0.0 / mixed_ref=1 / me_range=32 / chroma_me=1 / trellis=2 / 8x8dct=1 / cqm=0 / deadzone=21,11 / chroma_qp_offset=-2 / threads=3 / nr=0 / decimate=0 / mbaff=0 / bframes=16 / b_pyramid=1 / b_adapt=1 / b_bias=0 / direct=3 / wpredb=0 / keyint=250 / keyint_min=25 / scenecut=40 / rc=2pass / bitrate=920 / ratetol=1.0 / qcomp=0.60 / qpmin=10 / qpmax=51 / qpstep=4 / cplxblur=20.0 / qblur=0.5 / ip_ratio=1.40 / pb_ratio=1.30 / aq=0
Default                     : Yes
Forced                      : No

Audio
ID                          : 2
Format                      : AC-3
Format/Info                 : Audio Coding 3
Commercial name             : Dolby Digital
Codec ID                    : A_AC3
Duration                    : 22 min 32 s
Bit rate mode               : Constant
Bit rate                    : 192 kb/s
Channel(s)                  : 2 channels
Channel layout              : L R
Sampling rate               : 48.0 kHz
Frame rate                  : 31.250 FPS (1536 SPF)
Bit depth                   : 16 bits
Compression mode            : Lossy
Stream size                 : 31.0 MiB (17%)
Language                    : English
Service kind                : Complete Main
Default                     : Yes
Forced                      : No

Text
ID                          : 3
Format                      : UTF-8
Codec ID                    : S_TEXT/UTF8
Codec ID/Info               : UTF-8 Plain Text
Default                     : Yes
Forced                      : No

TitleFamily Guy
Year1999
GenreAnimation
Rating8.1 (297,132 votes)
PlotSick, twisted and politically incorrect, the animated series features the adventures of the Griffin family. Endearingly ignorant Peter and his stay-at-home wife Lois reside in Quahog, R.I., and have three kids. Meg, the eldest child, is a social outcast, and teenage Chris is awkward and clueless when it comes to the opposite sex. The youngest, Stewie, is a genius baby bent on killing his mother and destroying the world. The talking dog, Brian, keeps Stewie in check while sipping martinis and…
Directorn/A
CastsSeth MacFarlane / Alex Borstein / Seth Green / Mila Kunis / Mike Henry…
Runtime22 min
Family Guy


No keyword! (Click to edit!)

The War Of The Beauties 2013 48/48 HD720p FFVNBrooklyn Nine-Nine Season 1 Complete 720 Web-Dl-SujaidrContainment S01E11 720p HDTV X264-DIMENSIONAsh vs Evil Dead S03 720p AMZN WEB-DL DDP5.1 H.264-NTbSmallville S10 720p BluRay DD5.1 x264-DONAll That Is Bitter Is Sweet TVB 2014 29/29 HD720p Đạt Phi LT