NetHD.org

Family Guy S02 PROPER NTSC DVD DD2 0 x264-CtrlSD

Download Family Guy S02 PROPER NTSC DVD DD2 0 x264-CtrlSD 
Small DescriptionSick, twisted and politically incorrect, the animated series features the adventures of the Griffin family. Endearingly ignorant Peter and his stay-at-home wife Lois reside in Quahog, R.I., and have three kids. Meg, the eldest child, is a social outcast, and teenage Chris is awkward and clueless when it comes to the opposite sex. The youngest, Stewie, is a genius baby bent on killing his mother and destroying the world. The talking dog, Brian, keeps Stewie in check while sipping martinis and…
Basic Info
Uploaded byAnonymous at 2020-06-29 19:46:35
Action
Hot Meter
  • Views: 38
  • Hits: 73
  • Snatched: 11 x time(s)
  • Last Action: 2020-07-10 20:28:23
Peers8 Seeder | 0 Leecher



General
Unique ID                   : 172574164651250794469198304698127391111 (0x81D4933BE9A8B010AD5FD816D9A09987)
Complete name               : E:\Family Guy\Family.Guy.S02.PROPER.NTSC.DVD.DD2.0.x264-CtrlSD\Family.Guy.S02E01.PROPER.NTSC.DVD.DD2.0.x264-CtrlSD.mkv
Format                      : Matroska
Format version              : Version 2
File size                   : 180 MiB
Duration                    : 22 min 36 s
Overall bit rate            : 1 110 kb/s
Encoded date                : UTC 2009-06-07 05:15:00
Writing application         : mkvmerge v2.9.0 ('Moanin'') built on May 22 2009 17:46:31
Writing library             : libebml v0.7.7 + libmatroska v0.8.1

Video
ID                          : 1
Format                      : AVC
Format/Info                 : Advanced Video Codec
Format profile              : High@L4
Format settings             : CABAC / 16 Ref Frames
Format settings, CABAC      : Yes
Format settings, Reference  : 16 frames
Codec ID                    : V_MPEG4/ISO/AVC
Duration                    : 22 min 36 s
Bit rate                    : 917 kb/s
Width                       : 712 pixels
Height                      : 480 pixels
Display aspect ratio        : 4:3
Frame rate mode             : Constant
Frame rate                  : 23.976 (24000/1001) FPS
Color space                 : YUV
Chroma subsampling          : 4:2:0
Bit depth                   : 8 bits
Scan type                   : Progressive
Bits/(Pixel*Frame)          : 0.112
Stream size                 : 145 MiB (81%)
Writing library             : x264 core 67 r1139M 1024283
Encoding settings           : cabac=1 / ref=16 / deblock=1:1:1 / analyse=0x3:0x133 / me=tesa / subme=9 / psy_rd=0.6:0.0 / mixed_ref=1 / me_range=32 / chroma_me=1 / trellis=2 / 8x8dct=1 / cqm=0 / deadzone=21,11 / chroma_qp_offset=-2 / threads=12 / nr=0 / decimate=0 / mbaff=0 / bframes=16 / b_pyramid=1 / b_adapt=1 / b_bias=0 / direct=3 / wpredb=0 / keyint=250 / keyint_min=25 / scenecut=40 / rc=2pass / bitrate=917 / ratetol=1.0 / qcomp=0.60 / qpmin=10 / qpmax=51 / qpstep=4 / cplxblur=20.0 / qblur=0.5 / ip_ratio=1.40 / pb_ratio=1.30 / aq=0
Default                     : Yes
Forced                      : No

Audio
ID                          : 2
Format                      : AC-3
Format/Info                 : Audio Coding 3
Commercial name             : Dolby Digital
Codec ID                    : A_AC3
Duration                    : 22 min 36 s
Bit rate mode               : Constant
Bit rate                    : 192 kb/s
Channel(s)                  : 2 channels
Channel layout              : L R
Sampling rate               : 48.0 kHz
Frame rate                  : 31.250 FPS (1536 SPF)
Bit depth                   : 16 bits
Compression mode            : Lossy
Stream size                 : 31.1 MiB (17%)
Language                    : English
Service kind                : Complete Main
Default                     : Yes
Forced                      : No

Text
ID                          : 3
Format                      : UTF-8
Codec ID                    : S_TEXT/UTF8
Codec ID/Info               : UTF-8 Plain Text
Language                    : English
Default                     : Yes
Forced                      : No

TitleFamily Guy
Year1999
GenreAnimation
Rating8.1 (297,132 votes)
PlotSick, twisted and politically incorrect, the animated series features the adventures of the Griffin family. Endearingly ignorant Peter and his stay-at-home wife Lois reside in Quahog, R.I., and have three kids. Meg, the eldest child, is a social outcast, and teenage Chris is awkward and clueless when it comes to the opposite sex. The youngest, Stewie, is a genius baby bent on killing his mother and destroying the world. The talking dog, Brian, keeps Stewie in check while sipping martinis and…
Directorn/A
CastsSeth MacFarlane / Alex Borstein / Seth Green / Mila Kunis / Mike Henry…
Runtime22 min
Family Guy


No keyword! (Click to edit!)

Californication S06 1080p BluRay DD5.1 x264-NTbFlower Boys Next Door 2013 720p HDTV DD2.0 x264Little House on the Prairie S01 720p BluRay FLAC2 0 x264-TayTOStrike Back S04 Vie 1080p BluRay DD5.1 x264-SA89The Walking Dead S01 1080p BluRay DD5.1 x264-CtrlHDBates Motel S05 720p BluRay DD5.1 x264-NTb