NetHD.org

Family Guy S03 NTSC DVD DD5.1 x264-Jason28

Download Family Guy S03 NTSC DVD DD5.1 x264-Jason28 
Small DescriptionSick, twisted and politically incorrect, the animated series features the adventures of the Griffin family. Endearingly ignorant Peter and his stay-at-home wife Lois reside in Quahog, R.I., and have three kids. Meg, the eldest child, is a social outcast, and teenage Chris is awkward and clueless when it comes to the opposite sex. The youngest, Stewie, is a genius baby bent on killing his mother and destroying the world. The talking dog, Brian, keeps Stewie in check while sipping martinis and…
Basic Info
Uploaded byAnonymous at 2020-06-29 19:44:18
Action
Hot Meter
  • Views: 42
  • Hits: 69
  • Snatched: 9 x time(s)
  • Last Action: 2020-07-10 20:28:23
Peers7 Seeder | 0 Leecher



General
Unique ID                   : 202578930905667873484551968721400799811 (0x9867486D01D7D22CB02CA2B079E8A243)
Complete name               : E:\Family Guy\Family.Guy.S03.NTSC.DVD.DD5.1.x264-Jason28\Family.Guy.S03E01.NTSC.DVD.DD5.1.x264-Jason28.mkv
Format                      : Matroska
Format version              : Version 1
File size                   : 161 MiB
Duration                    : 22 min 22 s
Overall bit rate            : 1 005 kb/s
Encoded date                : UTC 2008-06-30 20:53:00
Writing application         : mkvmerge v2.2.0 ('Turn It On Again') built on Mar  4 2008 12:58:26
Writing library             : libebml v0.7.7 + libmatroska v0.8.1

Video
ID                          : 1
Format                      : AVC
Format/Info                 : Advanced Video Codec
Format profile              : Main@L4.1
Format settings             : CABAC / 16 Ref Frames
Format settings, CABAC      : Yes
Format settings, Reference  : 16 frames
Codec ID                    : V_MPEG4/ISO/AVC
Duration                    : 22 min 22 s
Bit rate                    : 803 kb/s
Width                       : 704 pixels
Height                      : 480 pixels
Display aspect ratio        : 4:3
Original display aspect rat : 3:2
Frame rate mode             : Constant
Frame rate                  : 23.976 (24000/1001) FPS
Color space                 : YUV
Chroma subsampling          : 4:2:0
Bit depth                   : 8 bits
Scan type                   : Progressive
Bits/(Pixel*Frame)          : 0.099
Stream size                 : 127 MiB (79%)
Writing library             : x264 core 60 r886M 1075536
Encoding settings           : cabac=1 / ref=16 / deblock=1:1:1 / analyse=0x1:0x111 / me=umh / subme=7 / rdcmp=psy / brdo=1 / mixed_ref=1 / me_range=16 / chroma_me=1 / trellis=2 / 8x8dct=0 / cqm=0 / deadzone=21,11 / chroma_qp_offset=0 / threads=3 / nr=0 / decimate=1 / mbaff=0 / bframes=16 / b_pyramid=1 / b_adapt=1 / b_bias=0 / direct=3 / wpredb=1 / bime=1 / keyint=250 / keyint_min=25 / scenecut=40(pre) / rc=2pass / bitrate=803 / ratetol=1.0 / rceq='blurCplx^(1-qComp)' / qcomp=1.00 / qpmin=10 / qpmax=51 / qpstep=4 / cplxblur=20.0 / qblur=0.5 / ip_ratio=1.40 / pb_ratio=1.30 / aq=2:1.00
Language                    : English
Default                     : Yes
Forced                      : No

Audio
ID                          : 2
Format                      : AC-3
Format/Info                 : Audio Coding 3
Commercial name             : Dolby Digital
Codec ID                    : A_AC3
Duration                    : 22 min 22 s
Bit rate mode               : Constant
Bit rate                    : 192 kb/s
Channel(s)                  : 2 channels
Channel layout              : L R
Sampling rate               : 48.0 kHz
Frame rate                  : 31.250 FPS (1536 SPF)
Bit depth                   : 16 bits
Compression mode            : Lossy
Stream size                 : 30.7 MiB (19%)
Language                    : English
Service kind                : Complete Main
Default                     : Yes
Forced                      : No

Text #1
ID                          : 3
Format                      : UTF-8
Codec ID                    : S_TEXT/UTF8
Codec ID/Info               : UTF-8 Plain Text
Default                     : Yes
Forced                      : No

Text #2
ID                          : 4
Format                      : VobSub
Muxing mode                 : zlib
Codec ID                    : S_VOBSUB
Codec ID/Info               : Picture based subtitle format used on DVDs
Language                    : English
Default                     : No
Forced                      : No

Text #3
ID                          : 5
Format                      : VobSub
Muxing mode                 : zlib
Codec ID                    : S_VOBSUB
Codec ID/Info               : Picture based subtitle format used on DVDs
Language                    : Spanish
Default                     : No
Forced                      : No

Text #4
ID                          : 6
Format                      : VobSub
Muxing mode                 : zlib
Codec ID                    : S_VOBSUB
Codec ID/Info               : Picture based subtitle format used on DVDs
Language                    : Spanish
Default                     : No
Forced                      : No

Text #5
ID                          : 7
Format                      : VobSub
Muxing mode                 : zlib
Codec ID                    : S_VOBSUB
Codec ID/Info               : Picture based subtitle format used on DVDs
Language                    : French
Default                     : No
Forced                      : No

Menu
00:00:00.000                : en:Chapter 1
00:04:23.533                : en:Chapter 2
00:06:50.533                : en:Chapter 3
00:10:53.167                : en:Chapter 4
00:17:10.667                : en:Chapter 5
00:22:21.433                : en:Chapter 6

TitleFamily Guy
Year1999
GenreAnimation
Rating8.1 (297,132 votes)
PlotSick, twisted and politically incorrect, the animated series features the adventures of the Griffin family. Endearingly ignorant Peter and his stay-at-home wife Lois reside in Quahog, R.I., and have three kids. Meg, the eldest child, is a social outcast, and teenage Chris is awkward and clueless when it comes to the opposite sex. The youngest, Stewie, is a genius baby bent on killing his mother and destroying the world. The talking dog, Brian, keeps Stewie in check while sipping martinis and…
Directorn/A
CastsSeth MacFarlane / Alex Borstein / Seth Green / Mila Kunis / Mike Henry…
Runtime22 min
Family Guy


No keyword! (Click to edit!)

Yu_Yu_Hakusho DVDRIP Yong Pal 2015 ViE 720p HDTV DD2.0 x264Agent X US S01E04 720p HDTV X264-DIMENSIONElementary S01 720p WEB-DL DD5.1 H.264-ECIiZombie S01 1080p BluRay DD5.1 x264-SA89The Girl's Guide to Depravity S02 720p HDTV DD2.0 x264-CtrlHD