NetHD.org

Family Guy S04 MIXED DVDRip DD5.1 x264-BTN

Download Family Guy S04 MIXED DVDRip DD5.1 x264-BTN 
Small DescriptionSick, twisted and politically incorrect, the animated series features the adventures of the Griffin family. Endearingly ignorant Peter and his stay-at-home wife Lois reside in Quahog, R.I., and have three kids. Meg, the eldest child, is a social outcast, and teenage Chris is awkward and clueless when it comes to the opposite sex. The youngest, Stewie, is a genius baby bent on killing his mother and destroying the world. The talking dog, Brian, keeps Stewie in check while sipping martinis and…
Basic Info
Uploaded byAnonymous at 2020-06-29 19:42:07
Action
Hot Meter
  • Views: 40
  • Hits: 68
  • Snatched: 10 x time(s)
  • Last Action: 2020-07-10 20:28:22
Peers5 Seeder | 0 Leecher



General
Unique ID                   : 191357710933210283951913020232270963992 (0x8FF6279115AE1570A64874A7629D6518)
Complete name               : E:\Family Guy\Family.Guy.S04.MIXED.DVDRip.DD5.1.x264-BTN\Family.Guy.S04E01.NTSC.DVD.DD5.1.x264-Jason28.mkv
Format                      : Matroska
Format version              : Version 1
File size                   : 221 MiB
Duration                    : 21 min 59 s
Overall bit rate mode       : Variable
Overall bit rate            : 1 406 kb/s
Encoded date                : UTC 2008-07-03 04:51:21
Writing application         : mkvmerge v2.2.0 ('Turn It On Again') built on Mar  4 2008 12:58:26
Writing library             : libebml v0.7.7 + libmatroska v0.8.1

Video
ID                          : 1
Format                      : AVC
Format/Info                 : Advanced Video Codec
Format profile              : Main@L4.1
Format settings             : CABAC / 16 Ref Frames
Format settings, CABAC      : Yes
Format settings, Reference  : 16 frames
Codec ID                    : V_MPEG4/ISO/AVC
Duration                    : 21 min 59 s
Bit rate                    : 868 kb/s
Width                       : 704 pixels
Height                      : 480 pixels
Display aspect ratio        : 4:3
Original display aspect rat : 3:2
Frame rate mode             : Constant
Frame rate                  : 23.976 (24000/1001) FPS
Color space                 : YUV
Chroma subsampling          : 4:2:0
Bit depth                   : 8 bits
Scan type                   : Progressive
Bits/(Pixel*Frame)          : 0.107
Stream size                 : 134 MiB (60%)
Writing library             : x264 core 60 r886M 1075536
Encoding settings           : cabac=1 / ref=16 / deblock=1:1:1 / analyse=0x1:0x111 / me=umh / subme=7 / rdcmp=psy / brdo=1 / mixed_ref=1 / me_range=16 / chroma_me=1 / trellis=2 / 8x8dct=0 / cqm=0 / deadzone=21,11 / chroma_qp_offset=0 / threads=3 / nr=0 / decimate=1 / mbaff=0 / bframes=16 / b_pyramid=1 / b_adapt=1 / b_bias=0 / direct=3 / wpredb=1 / bime=1 / keyint=250 / keyint_min=25 / scenecut=40(pre) / rc=2pass / bitrate=868 / ratetol=1.0 / rceq='blurCplx^(1-qComp)' / qcomp=1.00 / qpmin=10 / qpmax=51 / qpstep=4 / cplxblur=20.0 / qblur=0.5 / ip_ratio=1.40 / pb_ratio=1.30 / aq=2:1.00
Language                    : English
Default                     : Yes
Forced                      : No

Audio #1
ID                          : 2
Format                      : AC-3
Format/Info                 : Audio Coding 3
Commercial name             : Dolby Digital
Codec ID                    : A_AC3
Duration                    : 21 min 59 s
Bit rate mode               : Constant
Bit rate                    : 448 kb/s
Channel(s)                  : 6 channels
Channel layout              : L R C LFE Ls Rs
Sampling rate               : 48.0 kHz
Frame rate                  : 31.250 FPS (1536 SPF)
Bit depth                   : 16 bits
Compression mode            : Lossy
Stream size                 : 70.4 MiB (32%)
Language                    : English
Service kind                : Complete Main
Default                     : Yes
Forced                      : No

Audio #2
ID                          : 3
Format                      : Vorbis
Format settings, Floor      : 1
Codec ID                    : A_VORBIS
Duration                    : 21 min 59 s
Bit rate mode               : Variable
Bit rate                    : 80.0 kb/s
Channel(s)                  : 2 channels
Sampling rate               : 48.0 kHz
Compression mode            : Lossy
Stream size                 : 12.6 MiB (6%)
Writing library             : aoTuV Beta 4.51 (UTC 2005-11-17)
Default                     : No
Forced                      : No

Text #1
ID                          : 4
Format                      : UTF-8
Codec ID                    : S_TEXT/UTF8
Codec ID/Info               : UTF-8 Plain Text
Default                     : Yes
Forced                      : No

Text #2
ID                          : 5
Format                      : VobSub
Muxing mode                 : zlib
Codec ID                    : S_VOBSUB
Codec ID/Info               : Picture based subtitle format used on DVDs
Language                    : English
Default                     : No
Forced                      : No

Text #3
ID                          : 6
Format                      : VobSub
Muxing mode                 : zlib
Codec ID                    : S_VOBSUB
Codec ID/Info               : Picture based subtitle format used on DVDs
Language                    : French
Default                     : No
Forced                      : No

Text #4
ID                          : 7
Format                      : VobSub
Muxing mode                 : zlib
Codec ID                    : S_VOBSUB
Codec ID/Info               : Picture based subtitle format used on DVDs
Language                    : Spanish
Default                     : No
Forced                      : No

Menu
00:00:00.000                : en:Chapter 1
00:01:25.933                : en:Chapter 2
00:06:22.700                : en:Chapter 3
00:15:13.267                : en:Chapter 4
00:21:19.500                : en:Chapter 5
00:21:57.733                : en:Chapter 6

TitleFamily Guy
Year1999
GenreAnimation
Rating8.1 (297,132 votes)
PlotSick, twisted and politically incorrect, the animated series features the adventures of the Griffin family. Endearingly ignorant Peter and his stay-at-home wife Lois reside in Quahog, R.I., and have three kids. Meg, the eldest child, is a social outcast, and teenage Chris is awkward and clueless when it comes to the opposite sex. The youngest, Stewie, is a genius baby bent on killing his mother and destroying the world. The talking dog, Brian, keeps Stewie in check while sipping martinis and…
Directorn/A
CastsSeth MacFarlane / Alex Borstein / Seth Green / Mila Kunis / Mike Henry…
Runtime22 min
Family Guy


No keyword! (Click to edit!)

Ghost Wars S01 720p AMZN WEBRip DD5.1 x264-NTbOshin おしん (1983) NTSC DVD5 COMPLETE (31/31 DVD)Marvel's Agents of S.H.I.E.L.D. S01 1080p BluRay DTS x264-EbPTề Thiên Đại Thánh Tôn Ngộ Không - The Monkey King: Quest for the Sutra 2002 480p USLTGood Doctor SBS 2013 E01-20 Complete 720p HDTV x264Archer S05 720p BluRay AC3 x264-CtrlHD