NetHD.org

Family Guy S05 NTSC DVD DD5.1 x264-Jason28

Download Family Guy S05 NTSC DVD DD5.1 x264-Jason28 
Small DescriptionSick, twisted and politically incorrect, the animated series features the adventures of the Griffin family. Endearingly ignorant Peter and his stay-at-home wife Lois reside in Quahog, R.I., and have three kids. Meg, the eldest child, is a social outcast, and teenage Chris is awkward and clueless when it comes to the opposite sex. The youngest, Stewie, is a genius baby bent on killing his mother and destroying the world. The talking dog, Brian, keeps Stewie in check while sipping martinis and…
Basic Info
Uploaded byAnonymous at 2020-06-29 19:36:43
Action
Hot Meter
  • Views: 41
  • Hits: 64
  • Snatched: 9 x time(s)
  • Last Action: 2020-07-10 20:28:23
Peers5 Seeder | 0 Leecher



General
Unique ID                   : 242129026262209186165757958054855310221 (0xB6285AAD665A51CA92E6C5AECAFFFB8D)
Complete name               : E:\Family Guy\Family.Guy.S05.NTSC.DVD.DD5.1.x264-Jason28\Family.Guy.S05E01.NTSC.DVD.DD5.1.x264-Jason28.mkv
Format                      : Matroska
Format version              : Version 1
File size                   : 203 MiB
Duration                    : 21 min 48 s
Overall bit rate            : 1 301 kb/s
Encoded date                : UTC 2008-11-05 01:20:29
Writing application         : mkvmerge v2.3.0 ('Freak U') built on Sep  8 2008 18:32:16
Writing library             : libebml v0.7.7 + libmatroska v0.8.1

Video
ID                          : 3
Format                      : AVC
Format/Info                 : Advanced Video Codec
Format profile              : High@L3.1
Format settings             : CABAC / 12 Ref Frames
Format settings, CABAC      : Yes
Format settings, Reference  : 12 frames
Codec ID                    : V_MPEG4/ISO/AVC
Duration                    : 21 min 48 s
Bit rate                    : 849 kb/s
Width                       : 716 pixels
Height                      : 480 pixels
Display aspect ratio        : 4:3
Original display aspect rat : 3:2
Frame rate mode             : Constant
Frame rate                  : 23.976 (24000/1001) FPS
Color space                 : YUV
Chroma subsampling          : 4:2:0
Bit depth                   : 8 bits
Scan type                   : Progressive
Bits/(Pixel*Frame)          : 0.103
Stream size                 : 129 MiB (64%)
Writing library             : x264 core 65 r999M cc51047
Encoding settings           : cabac=1 / ref=12 / deblock=1:1:1 / analyse=0x3:0x113 / me=umh / subme=8 / psy_rd=0.6:0.0 / mixed_ref=1 / me_range=16 / chroma_me=1 / trellis=2 / 8x8dct=1 / cqm=0 / deadzone=21,11 / chroma_qp_offset=-2 / threads=3 / nr=0 / decimate=1 / mbaff=0 / bframes=16 / b_pyramid=1 / b_adapt=1 / b_bias=0 / direct=3 / wpredb=0 / keyint=250 / keyint_min=25 / scenecut=40(pre) / rc=2pass / bitrate=849 / ratetol=1.0 / qcomp=0.60 / qpmin=10 / qpmax=51 / qpstep=4 / cplxblur=20.0 / qblur=0.5 / ip_ratio=1.40 / pb_ratio=1.30 / aq=0
Language                    : English
Default                     : Yes
Forced                      : No

Audio
ID                          : 1
Format                      : AC-3
Format/Info                 : Audio Coding 3
Commercial name             : Dolby Digital
Codec ID                    : A_AC3
Duration                    : 21 min 48 s
Bit rate mode               : Constant
Bit rate                    : 448 kb/s
Channel(s)                  : 6 channels
Channel layout              : L R C LFE Ls Rs
Sampling rate               : 48.0 kHz
Frame rate                  : 31.250 FPS (1536 SPF)
Bit depth                   : 16 bits
Compression mode            : Lossy
Stream size                 : 69.9 MiB (34%)
Service kind                : Complete Main
Default                     : Yes
Forced                      : No

Text
ID                          : 2
Format                      : UTF-8
Codec ID                    : S_TEXT/UTF8
Codec ID/Info               : UTF-8 Plain Text
Default                     : Yes
Forced                      : No

TitleFamily Guy
Year1999
GenreAnimation
Rating8.1 (297,132 votes)
PlotSick, twisted and politically incorrect, the animated series features the adventures of the Griffin family. Endearingly ignorant Peter and his stay-at-home wife Lois reside in Quahog, R.I., and have three kids. Meg, the eldest child, is a social outcast, and teenage Chris is awkward and clueless when it comes to the opposite sex. The youngest, Stewie, is a genius baby bent on killing his mother and destroying the world. The talking dog, Brian, keeps Stewie in check while sipping martinis and…
Directorn/A
CastsSeth MacFarlane / Alex Borstein / Seth Green / Mila Kunis / Mike Henry…
Runtime22 min
Family Guy


No keyword! (Click to edit!)

The Blacklist S03 720p HDTV x264-SceneNCIS: New Orleans S05 720p AMZN WEB-DL DDP5.1 x264-NTbYou Are My Sunshine 2014 32/32 Eps 720p HDTV Pink Lipstick MBC 2010 149Ep HDTV USLTUntraceable Evidence 1999 TVB ViE 720p HDTV MPEG-2 x264The Simpsons S13 720p Bluray DD5.1 x264-CtrlHD