NetHD.org

Fear the Walking Dead S02 720p BluRay DD5.1 x264-NTb

Download Fear the Walking Dead S02 720p BluRay DD5.1 x264-NTb 
Small Descriptioninternal HDBits
Basic Info
Uploaded byAnonymous at 2018-02-26 22:15:01
Action
Hot Meter
  • Views: 664
  • Hits: 17
  • Snatched: 4 x time(s)
  • Last Action: 2019-08-05 23:40:00
Peers0 Seeder | 0 Leecher

  • 0


Source: Fear the Walking Dead S02 1080p GER Blu-ray AVC DTS-HD MA 5.1-XORBiTANT
Video: 23.976fps 1280x720 x264 ~4.9-9 mbit
Audio: English AC3 5.1 640 kbit
Subtitles: English Forced (All but E01 and E02), English

Source - Encode - DEMAND


Quote
General
Unique ID                      : 224322432933535558748607564718766860107 (0xA8C2EDD815D3698D8D5FE991E018A74B)
Format                         : Matroska
Format version                 : Version 4 / Version 2
File size                      : 2.09 GiB
Duration                       : 42mn 53s
Overall bit rate               : 6 979 Kbps
Encoded date                   : UTC 2016-11-15 02:34:58
Writing application            : mkvmerge v9.3.1 ('Mask Machine') 64bit
Writing library                : libebml v1.3.4 + libmatroska v1.4.5

Video
ID                             : 1
Format                         : AVC
Format/Info                    : Advanced Video Codec
Format profile                 : High@L4.1
Format settings, CABAC         : Yes
Format settings, ReFrames      : 9 frames
Codec ID                       : V_MPEG4/ISO/AVC
Duration                       : 42mn 53s
Bit rate                       : 6 201 Kbps
Width                          : 1 280 pixels
Height                         : 720 pixels
Display aspect ratio           : 16:9
Frame rate mode                : Constant
Frame rate                     : 23.976 fps
Color space                    : YUV
Chroma subsampling             : 4:2:0
Bit depth                      : 8 bits
Scan type                      : Progressive
Bits/(Pixel*Frame)             : 0.281
Stream size                    : 1.86 GiB (89%)
Writing library                : x264 core 148 r2705kMod 3f5ed56
Encoding settings              : cabac=1 / ref=9 / deblock=1:-3:-3 / analyse=0x3:0x133 / me=umh / subme=10 / psy=1 / fade_compensate=0.00 / psy_rd=0.90:0.00 / mixed_ref=1 / me_range=32 / chroma_me=1 / trellis=2 / 8x8dct=1 / cqm=0 / deadzone=21,11 / fast_pskip=1 / chroma_qp_offset=-2 / threads=12 / lookahead_threads=2 / sliced_threads=0 / nr=0 / decimate=1 / interlaced=0 / bluray_compat=0 / constrained_intra=0 / fgo=0 / bframes=8 / b_pyramid=2 / b_adapt=2 / b_bias=0 / direct=3 / weightb=1 / open_gop=0 / weightp=2 / keyint=250 / keyint_min=23 / scenecut=40 / intra_refresh=0 / rc=crf / mbtree=0 / crf=17.7500 / qcomp=0.60 / qpmin=0 / qpmax=69 / qpstep=4 / ip_ratio=1.30 / pb_ratio=1.20 / aq=3:0.80
Language                       : English
Default                        : Yes
Forced                         : No

Audio
ID                             : 2
Format                         : AC-3
Format/Info                    : Audio Coding 3
Mode extension                 : CM (complete main)
Format settings, Endianness    : Big
Codec ID                       : A_AC3
Duration                       : 42mn 53s
Bit rate mode                  : Constant
Bit rate                       : 640 Kbps
Channel(s)                     : 6 channels
Channel positions              : Front: L C R, Side: L R, LFE
Sampling rate                  : 48.0 KHz
Compression mode               : Lossy
Stream size                    : 196 MiB (9%)
Language                       : English
Default                        : Yes
Forced                         : No

Text
ID                             : 3
Format                         : UTF-8
Codec ID                       : S_TEXT/UTF8
Codec ID/Info                  : UTF-8 Plain Text
Language                       : English
Default                        : No
Forced                         : No

Menu
00:00:00.000                   : en:00:00:00.000
00:06:33.602                   : en:00:06:33.602
00:15:18.209                   : en:00:15:18.209
00:21:18.736                   : en:00:21:18.736
00:28:45.766                   : en:00:28:45.766
00:36:02.452                   : en:00:36:02.452
TitleFear the Walking Dead
Year2015
Genre
Rating6.9 (102,157 votes)
PlotSpin off series of The Walking Dead that portrays the beginning events of the zombie apocalypse in the West coast during the same time frame when the city of Atlanta was falling under attack, while Rick was in a coma at the local hospital. It shows how the strain was already in full effect in the south while it's just starting in California.
Directorn/A
CastsAlycia Debnam-Carey,Colman Domingo,Danay Garcia,Kim Dickens,Frank Dillane…
Runtime44 min
Fear the Walking Dead


24 S01 720p WEB-DL AAC2.0 H.264Person of Interest S05E03 720p HDTV X264-DIMENSIONGame of Thrones S04 mHD BluRay DD5.1 x264-TRiMAmerican Horror Story S07 1080p BluRay DTS x264-SHORTBREHDSong In The Clouds 2017 ViE 720p HDTV AAC x264IRIS 2009 Complete 20EP mHD-720p HDTV AC3 x264-TRiM

Only members can create comment.