NetHD.org

Nâng Cấp RatioTài Khoản VIPDonate VDP

FEU Crazy Horse Paris 2012 3D 1080p BDRip HEVC DTS mkv

Download FEU Crazy Horse Paris 2012 3D 1080p BDRip HEVC DTS mkv 
DescriptionCó cân nhắc
Basic Info
Uploaded byqtung0186 (Power User) at 2021-01-12 12:17:43
Action
Hot Meter
  • Views: 1124
  • Hits: 176
  • Snatched: 130 x time(s)
  • Last Action: 2021-01-24 10:10:23
Peers27 Seeder | 0 Leecher


General:
Complete name                            : FEU Crazy Horse Paris 2012 3D 1080p BDRip HEVC DTS.mkv
Format                                   : Matroska
Format version                           : Version 4
File size                                : 8.16 GiB
Duration                                 : 1 h 20 min
Overall bit rate                         : 14.5 Mb/s
Encoded date                             : UTC 2019-12-30 15:04:42
Writing application                      : mkvmerge v41.0.0 ('Smarra') 64-bit
Writing library                          : libebml v1.3.9 + libmatroska v1.5.2


Video:
ID                                       : 1
Format                                   : HEVC
Format/Info                              : High Efficiency Video Coding
Format profile                           : Main@L5@Main
MultiView_Count                          : 2
MultiView_Layout                         : Top-Bottom (left eye first)
Codec ID                                 : V_MPEGH/ISO/HEVC
Duration                                 : 1 h 20 min
Bit rate                                 : 13.0 Mb/s
Width                                    : 1 920 pixels
Height                                   : 2 160 pixels
Display aspect ratio                     : 16:9
Original display aspect ratio            : 0.889
Frame rate mode                          : Constant
Frame rate                               : 23.976 (24000/1001) FPS
Color space                              : YUV
Chroma subsampling                       : 4:2:0
Bit depth                                : 8 bits
Bits/(Pixel*Frame)                       : 0.131
Stream size                              : 7.30 GiB (89%)
Writing library                          : x265 2.9+1-169e76b6bbcc:[Windows][GCC 8.2.0][64 bit] 8bit+10bit+12bit
Default                                  : Yes
Forced                                   : No

Audio #1:
ID                                       : 2
Format                                   : DTS
Format/Info                              : Digital Theater Systems
Codec ID                                 : A_DTS
Duration                                 : 1 h 20 min
Bit rate mode                            : Constant
Bit rate                                 : 768 kb/s
Channel(s)                               : 6 channels
Channel layout                           : C L R Ls Rs LFE
Sampling rate                            : 48.0 kHz
Frame rate                               : 93.750 FPS (512 SPF)
Bit depth                                : 16 bits
Compression mode                         : Lossy
Stream size                              : 442 MiB (5%)
Language                                 : Russian
Default                                  : Yes
Forced                                   : No

Audio #2:
ID                                       : 3
Format                                   : DTS
Format/Info                              : Digital Theater Systems
Codec ID                                 : A_DTS
Duration                                 : 1 h 20 min
Bit rate mode                            : Constant
Bit rate                                 : 768 kb/s
Channel(s)                               : 6 channels
Channel layout                           : C L R Ls Rs LFE
Sampling rate                            : 48.0 kHz
Frame rate                               : 93.750 FPS (512 SPF)
Bit depth                                : 16 bits
Compression mode                         : Lossy
Stream size                              : 442 MiB (5%)
Language                                 : French
Default                                  : No
Forced                                   : No

Screenshots:
FEU Crazy Horse Paris 2012 3D 1080p BDRip HEVC DTS mkv screenshots FEU Crazy Horse Paris 2012 3D 1080p BDRip HEVC DTS mkv screenshots FEU Crazy Horse Paris 2012 3D 1080p BDRip HEVC DTS mkv screenshots FEU Crazy Horse Paris 2012 3D 1080p BDRip HEVC DTS mkv screenshots FEU Crazy Horse Paris 2012 3D 1080p BDRip HEVC DTS mkv screenshots FEU Crazy Horse Paris 2012 3D 1080p BDRip HEVC DTS mkv screenshots FEU Crazy Horse Paris 2012 3D 1080p BDRip HEVC DTS mkv screenshots FEU Crazy Horse Paris 2012 3D 1080p BDRip HEVC DTS mkv screenshots FEU Crazy Horse Paris 2012 3D 1080p BDRip HEVC DTS mkv screenshots

Trailer:
https://www.imdb.com/video/vi805486873?playlistId=tt2556342&ref_=tt_ov_vi

No keyword! (Click to edit!)

The Phantom of the Opera 2004 mHD BluRay DD5.1 x264-TRiMTaylor Swift: Reputation Stadium Tour 2018 1080p NF WEB-DL DDP5.1 x264-NTGWild Rose 2018 1080p BluRay DTS 5.1 x264-AMIABLE Eric Clapton - Slowhand at 70: Live at The Royal Albert Hall [2015, Blues Rock, Rock & Roll, Hard Rock, Blu-ray]Deep Purple with Orchestra ★ Live in Verona [2014, Rock, Hard Rock, Blu-ray, 1080i]Celine Dion: Live in Las Vegas - A New Day ... Disc 2 (Bonus) (Sony BMG) [2007, Pop, Blu-Ray, 1080i]