FIFA World Cup 2018 Group G Panama vs Tunisia 720p FOX WEBRip AAC 2.0 x264-AJP69

Download FIFA World Cup 2018 Group G Panama vs Tunisia 720p FOX WEBRip AAC 2.0 x264-AJP69 
Small DescriptionTrận 47/64: Panama vs Tunisia
Basic Info
Uploaded byconerto (SLiM) at 2018-06-30 19:54:34
Action
Social
  • 2
Hot Meter
  • Views: 196
  • Hits: 19
  • Snatched: 10 x time(s)
  • Last Action: 2018-11-02 05:41:00
Peers0 Seeder | 0 Leecher
FIFA World Cup 2018 Group G Panama vs Tunisia 720p FOX WEBRip AAC 2.0 x264-AJP69 screenshots




Quote
Video
ID : 1
Format : AVC
Format/Info : Advanced Video Codec
Format profile : High@L4.1
Format settings : CABAC / 4 Ref Frames
Format settings, CABAC : Yes
Format settings, RefFrames : 4 frames
Codec ID : V_MPEG4/ISO/AVC
Duration : 1 h 45 min
Bit rate mode : Constant
Bit rate : 4 872 kb/s
Width : 1 280 pixels
Height : 720 pixels
Display aspect ratio : 16:9
Frame rate mode : Constant
Frame rate : 59.940 (60000/1001) FPS
Color space : YUV
Chroma subsampling : 4:2:0
Bit depth : 8 bits
Scan type : Progressive
Bits/(Pixel*Frame) : 0.088
Stream size : 3.58 GiB (97%)
Default : Yes
Forced : No

Audio
ID : 2
Format : AAC
Format/Info : Advanced Audio Codec
Format profile : LC
Codec ID : A_AAC-2
Duration : 1 h 45 min
Bit rate : 125 kb/s
Channel(s) : 2 channels
Channel positions : Front: L R
Sampling rate : 48.0 kHz
Frame rate : 46.875 FPS (1024 SPF)
Compression mode : Lossy
Stream size : 94.2 MiB (3%)
Language : English
Default : Yes
Forced : No




Tags

Other releases

Same genre with FIFA World Cup 2018 Group G Panama vs Tunisia 720p FOX WEBRip AAC 2.0 x264-AJP69

FIFA World Cup 2018 Group D Croatia vs Nigeria 720p HDTV AC3 2.0 x264-VERUMFIFA World Cup 2018 Semi Final France vs Belgium 1080p HDTV x264-VERUMFormula1 2018 Round04 Azerbaijan Race 720p FOXSPORTS AAC2.0 x264-NaN FIFA World Cup 2018 Group G England vs Belgium 720p HDTV x264-VERUMFIFA World Cup 2018 Round of 16 Colombia vs England 1080p HDTV x264-VERUMFIFA World Cup 2018 Group E Switzerland vs Costa Rica 720p FOX WEBRip AAC2 0 x264-AJP69

Comment for FIFA World Cup 2018 Group G Panama vs Tunisia 720p FOX WEBRip AAC 2.0 x264-AJP69

Only members can create comment.