NetHD.org

For Colored Girls 2010 1080p BluRay Remux AVC DTS-HD MA 5.1-PTer

Download For Colored Girls 2010 1080p BluRay Remux AVC DTS-HD MA 5.1-PTer 
Small DescriptionThe movie is based on Ntozake Shange's play "For Colored Girls Who Have Considered Suicide When the Rainbow Is Enuf." Unlike the original play which featured only 7 women known by colors performing the collection of 20 poems, the movie has given each of the 20 characters names. Each of the poems deal with intense issues that particularly impact women in a thought-provoking commentary on what it means to be a female of color in the world. Written by Anonymous
Basic Info
Uploaded byAncREOsH (Power User) at 2020-10-17 12:41:08
Action
Hot Meter
  • Views: 97
  • Hits: 3
  • Snatched: 1 x time(s)
  • Last Action: 2020-10-27 05:22:01
Peers0 Seeder | 0 Leecher

  • 0



CODE
General
Unique ID : 35580667458900471363531087412808551587 (0x1AC49658A3D2DEDC052F5888F04E8CA3)
Complete name : For Colored Girls 2010 1080p Blu-ray Remux AVC DTS-HD MA 5.1-PTer.mkv
Format : Matroska
Format version : Version 4
File size : 18.8 GiB
Duration : 2 h 13 min
Overall bit rate mode : Variable
Overall bit rate : 20.2 Mb/s
Encoded date : UTC 2020-10-16 00:30:01
Writing application : mkvmerge v51.0.0 ('I Wish') 64-bit
Writing library : libebml v1.4.0 + libmatroska v1.6.2

Video
ID : 1
Format : AVC
Format/Info : Advanced Video Codec
Format profile : High@L4.1
Format settings : CABAC / 4 Ref Frames
Format settings, CABAC : Yes
Format settings, Reference frames : 4 frames
Format settings, GOP : M=3, N=12
Codec ID : V_MPEG4/ISO/AVC
Duration : 2 h 13 min
Bit rate mode : Variable
Bit rate : 17.0 Mb/s
Maximum bit rate : 37.0 Mb/s
Width : 1 920 pixels
Height : 1 080 pixels
Display aspect ratio : 16:9
Frame rate mode : Constant
Frame rate : 23.976 (24000/1001) FPS
Color space : YUV
Chroma subsampling : 4:2:0
Bit depth : 8 bits
Scan type : Progressive
Bits/(Pixel*Frame) : 0.341
Stream size : 15.8 GiB (84%)
Default : Yes
Forced : No

Audio
ID : 2
Format : DTS XLL
Format/Info : Digital Theater Systems
Commercial name : DTS-HD Master Audio
Codec ID : A_DTS
Duration : 2 h 13 min
Bit rate mode : Variable
Bit rate : 3 145 kb/s
Channel(s) : 6 channels
Channel layout : C L R Ls Rs LFE
Sampling rate : 48.0 kHz
Frame rate : 93.750 FPS (512 SPF)
Bit depth : 24 bits
Compression mode : Lossless
Stream size : 2.94 GiB (16%)
Title : English
Language : English
Default : Yes
Forced : No

Text #1
ID : 3
Format : PGS
Muxing mode : zlib
Codec ID : S_HDMV/PGS
Codec ID/Info : Picture based subtitle format used on BDs/HD-DVDs
Duration : 2 h 4 min
Bit rate : 39.5 kb/s
Count of elements : 2906
Stream size : 35.2 MiB (0%)
Title : English
Language : English
Default : Yes
Forced : No

Text #2
ID : 4
Format : PGS
Muxing mode : zlib
Codec ID : S_HDMV/PGS
Codec ID/Info : Picture based subtitle format used on BDs/HD-DVDs
Duration : 2 h 5 min
Bit rate : 41.2 kb/s
Count of elements : 3128
Stream size : 37.1 MiB (0%)
Title : English SDH
Language : English
Default : No
Forced : No

Text #3
ID : 5
Format : PGS
Muxing mode : zlib
Codec ID : S_HDMV/PGS
Codec ID/Info : Picture based subtitle format used on BDs/HD-DVDs
Duration : 2 h 5 min
Bit rate : 36.6 kb/s
Count of elements : 2918
Stream size : 32.9 MiB (0%)
Title : Spanish
Language : English
Default : No
Forced : No

Menu
00:00:00.000 : en:Chapter 01
00:08:06.820 : en:Chapter 02
00:15:50.575 : en:Chapter 03
00:26:17.534 : en:Chapter 04
00:35:23.121 : en:Chapter 05
00:46:18.734 : en:Chapter 06
00:53:22.825 : en:Chapter 07
01:05:11.116 : en:Chapter 08
01:09:58.653 : en:Chapter 09
01:13:43.419 : en:Chapter 10
01:21:15.329 : en:Chapter 11
01:25:23.368 : en:Chapter 12
01:35:59.963 : en:Chapter 13
01:44:43.861 : en:Chapter 14
01:50:24.409 : en:Chapter 15
01:59:44.010 : en:Chapter 16


For Colored Girls 2010 1080p BluRay Remux AVC DTS-HD MA 5.1-PTer screenshotsFor Colored Girls 2010 1080p BluRay Remux AVC DTS-HD MA 5.1-PTer screenshotsFor Colored Girls 2010 1080p BluRay Remux AVC DTS-HD MA 5.1-PTer screenshotsFor Colored Girls 2010 1080p BluRay Remux AVC DTS-HD MA 5.1-PTer screenshotsFor Colored Girls 2010 1080p BluRay Remux AVC DTS-HD MA 5.1-PTer screenshotsFor Colored Girls 2010 1080p BluRay Remux AVC DTS-HD MA 5.1-PTer screenshots
TitleFor Colored Girls
Year2010
GenreDrama
Rating6.1 (7,126 votes)
PlotThe movie is based on Ntozake Shange's play "For Colored Girls Who Have Considered Suicide When the Rainbow Is Enuf." Unlike the original play which featured only 7 women known by colors performing the collection of 20 poems, the movie has given each of the 20 characters names. Each of the poems deal with intense issues that particularly impact women in a thought-provoking commentary on what it means to be a female of color in the world. Written by Anonymous
DirectorTyler Perry
CastsKimberly Elise / Janet Jackson / Loretta Devine / Thandie Newton / Anika Noni Rose…
Runtime134 min
For Colored Girls

No keyword! (Click to edit!)

The Vow 2012 mHD BluRay DD5.1 x264-TRiM The Grapes of Wrath 1940 720p BluRay FLAC1.0 x264-DONHiroshima mon amour 1959 720p BluRay FLAC x264-EAEternal Beloved 2009 ViE 720p HDTV x264-NGBA Christmas Special 2016 NF 720p WEBRip DD5.1 x264-SadeceBluRay The White Crow 2018 720p BluRay DD5.1 x264-CRiSC