Formula1 2018 Round03 China Race 720p FOXSPORTS AAC2.0 x264-NaN

Download Formula1 2018 Round03 China Race 720p FOXSPORTS AAC2.0 x264-NaN 
Small DescriptionFormula 1 2018 Heineken Chinese Grand Prix
Basic Info
Uploaded byAnonymous at 2018-07-12 17:40:15
Action
Social
  • 0
Hot Meter
  • Views: 82
  • Hits: 9
  • Snatched: 4 x time(s)
  • Last Action: 2018-07-20 15:20:44
Peers5 Seeder | 0 Leecher
Formula1 2018 Round03 China Race 720p FOXSPORTS AAC2.0 x264-NaN screenshots













Formula1 2018 Round03 China Race 720p FOXSPORTS AAC2.0 x264-NaN screenshots


Format                                   : Matroska
Format version                           : Version 4 / Version 2
File size                                : 8.77 GiB
Duration                                 : 4 h 31 min
Overall bit rate                         : 4 623 kb/s
Encoded date                             : UTC 2018-04-18 00:13:38
Writing application                      : mkvmerge v15.0.0 ('Duel with the Devil') 64-bit
Writing library                          : libebml v1.3.5 + libmatroska v1.4.5
Writing frontend                         : StaxRip v1.7.0.0

Video
ID                                       : 1
Format                                   : AVC
Format/Info                              : Advanced Video Codec
Format profile                           : High@L4.1
Format settings                          : CABAC / 4 Ref Frames
Format settings, CABAC                   : Yes
Format settings, RefFrames               : 4 frames
Codec ID                                 : V_MPEG4/ISO/AVC
Duration                                 : 4 h 31 min
Bit rate                                 : 4 500 kb/s
Width                                    : 1 280 pixels
Height                                   : 720 pixels
Display aspect ratio                     : 16:9
Frame rate mode                          : Constant
Frame rate                               : 50.000 FPS
Color space                              : YUV
Chroma subsampling                       : 4:2:0
Bit depth                                : 8 bits
Scan type                                : Progressive
Bits/(Pixel*Frame)                       : 0.098
Stream size                              : 8.52 GiB (97%)
Writing library                          : x264 core 152 r2851 ba24899
Encoding settings                        : cabac=1 / ref=4 / deblock=1:0:0 / analyse=0x3:0x113 / me=umh / subme=7 / psy=1 / psy_rd=1.00:0.00 / mixed_ref=1 / me_range=16 / chroma_me=1 / trellis=1 / 8x8dct=1 / cqm=0 / deadzone=21,11 / fast_pskip=1 / chroma_qp_offset=-2 / threads=12 / lookahead_threads=2 / sliced_threads=0 / nr=0 / decimate=1 / interlaced=0 / bluray_compat=0 / constrained_intra=0 / bframes=4 / b_pyramid=2 / b_adapt=1 / b_bias=0 / direct=3 / weightb=1 / open_gop=0 / weightp=2 / keyint=250 / keyint_min=25 / scenecut=40 / intra_refresh=0 / rc_lookahead=40 / rc=abr / mbtree=1 / bitrate=4500 / ratetol=1.0 / qcomp=0.60 / qpmin=0 / qpmax=69 / qpstep=4 / ip_ratio=1.40 / aq=1:1.00
Default                                  : Yes
Forced                                   : No

Audio
ID                                       : 2
Format                                   : AAC
Format/Info                              : Advanced Audio Codec
Format profile                           : LC
Codec ID                                 : A_AAC-2
Duration                                 : 4 h 31 min
Bit rate                                 : 128 kb/s
Channel(s)                               : 2 channels
Channel positions                        : Front: L R
Sampling rate                            : 48.0 kHz
Frame rate                               : 46.875 FPS (1024 SPF)
Compression mode                         : Lossy
Delay relative to video                  : 13 ms
Stream size                              : 249 MiB (3%)
Language                                 : English
Default                                  : No
Forced                                   : No













Formula1 2018 Round03 China Race 720p FOXSPORTS AAC2.0 x264-NaN screenshots


Formula1 2018 Round03 China Race 720p FOXSPORTS AAC2.0 x264-NaN screenshotsFormula1 2018 Round03 China Race 720p FOXSPORTS AAC2.0 x264-NaN screenshotsFormula1 2018 Round03 China Race 720p FOXSPORTS AAC2.0 x264-NaN screenshots

TitleFormula 1
Year2018
GenreSport
Rating8.4 (24 votes)
Plotn/A
Directorn/A
CastsDaniel Ricciardo / Valtteri Bottas / Kimi Räikkönen / Lewis Hamilton / Max Verstappen…
Runtimen/A
GenresSport
Formula 1


Tags

Other releases

Same genre with Formula1 2018 Round03 China Race 720p FOXSPORTS AAC2.0 x264-NaN

FIFA World Cup 2018 Group E Brazil vs Switzerland 720p HDTV AC3 2.0 x264-VERUM FIFA World Cup 2018 Group C France vs Peru 720p HDTV x264-KYRLa Liga 2017.08.19 Girona Fc vs Atletico Madrid 720p HDTV x264-GAMETiMEMotoGP 2017 Complete Season 720p/1080p HDTV AAC2.0 x265Moto2 2018 Round05 France Race 1080p BTSportHD AAC2.0 x264UFC 206 Holloway vs Pettis 720p WEB-DL AAC2.0 H 264-KYR

Comment for Formula1 2018 Round03 China Race 720p FOXSPORTS AAC2.0 x264-NaN

Only members can create comment.