Formula1 2018 Round07 Canada Race 1080p FOXSPORTS AAC2.0 x265-NaN

Download Formula1 2018 Round07 Canada Race 1080p FOXSPORTS AAC2.0 x265-NaN 
Small DescriptionFORMULA 1 GRAND PRIX HEINEKEN DU CANADA 2018
Basic Info
Uploaded byAnonymous at 2018-07-12 17:56:15
Action
Social
  • 0
Hot Meter
  • Views: 136
  • Hits: 8
  • Snatched: 3 x time(s)
  • Last Action: 2018-09-25 09:16:58
Peers4 Seeder | 0 Leecher
Formula1 2018 Round07 Canada Race 1080p FOXSPORTS AAC2.0 x265-NaN screenshots













Formula1 2018 Round07 Canada Race 1080p FOXSPORTS AAC2.0 x265-NaN screenshots


Format                                   : Matroska
Format version                           : Version 4 / Version 2
File size                                : 12.5 GiB
Duration                                 : 4 h 28 min
Overall bit rate                         : 6 696 kb/s
Encoded date                             : UTC 2018-06-12 20:29:04
Writing application                      : mkvmerge v15.0.0 ('Duel with the Devil') 64-bit
Writing library                          : libebml v1.3.5 + libmatroska v1.4.5
Writing frontend                         : StaxRip v1.7.0.0

Video
ID                                       : 1
Format                                   : HEVC
Format/Info                              : High Efficiency Video Coding
Format profile                           : Main@L4.1@Main
Codec ID                                 : V_MPEGH/ISO/HEVC
Duration                                 : 4 h 28 min
Bit rate                                 : 6 564 kb/s
Width                                    : 1 920 pixels
Height                                   : 1 080 pixels
Display aspect ratio                     : 16:9
Frame rate mode                          : Constant
Frame rate                               : 50.000 FPS
Color space                              : YUV
Chroma subsampling                       : 4:2:0
Bit depth                                : 8 bits
Bits/(Pixel*Frame)                       : 0.063
Stream size                              : 12.3 GiB (98%)
Writing library                          : x265 2.5+14-2718cb5dd67f:[Windows][GCC 7.1.0][64 bit] 8bit+10bit+12bit
Encoding settings                        : cpuid=1173503 / frame-threads=3 / numa-pools=8 / wpp / no-pmode / no-pme / no-psnr / no-ssim / log-level=2 / input-csp=1 / input-res=1920x1080 / interlace=0 / total-frames=804138 / level-idc=0 / high-tier=1 / uhd-bd=0 / ref=4 / no-allow-non-conformance / no-repeat-headers / annexb / no-aud / no-hrd / info / hash=0 / no-temporal-layers / open-gop / min-keyint=25 / keyint=250 / bframes=4 / b-adapt=2 / b-pyramid / bframe-bias=0 / rc-lookahead=20 / lookahead-slices=6 / scenecut=40 / no-intra-refresh / ctu=64 / min-cu-size=8 / no-rect / no-amp / max-tu-size=32 / tu-inter-depth=1 / tu-intra-depth=1 / limit-tu=0 / rdoq-level=0 / dynamic-rd=0.00 / no-ssim-rd / signhide / no-tskip / nr-intra=0 / nr-inter=0 / no-constrained-intra / strong-intra-smoothing / max-merge=2 / limit-refs=3 / no-limit-modes / me=2 / subme=2 / merange=57 / temporal-mvp / weightp / no-weightb / no-analyze-src-pics / deblock=0:0 / sao / no-sao-non-deblock / rd=3 / no-early-skip / rskip / no-fast-intra / no-tskip-fast / no-cu-lossless / no-b-intra / no-splitrd-skip / rdpenalty=0 / psy-rd=2.00 / psy-rdoq=0.00 / no-rd-refine / analysis-reuse-mode=0 / no-lossless / cbqpoffs=0 / crqpoffs=0 / rc=crf / crf=20.0 / qcomp=0.60 / qpstep=4 / stats-write=0 / stats-read=0 / ipratio=1.40 / pbratio=1.30 / aq-mode=1 / aq-strength=1.00 / cutree / zone-count=0 / no-strict-cbr / qg-size=32 / no-rc-grain / qpmax=69 / qpmin=0 / no-const-vbv / sar=0 / overscan=0 / videoformat=5 / range=0 / colorprim=2 / transfer=2 / colormatrix=2 / chromaloc=0 / display-window=0 / max-cll=0,0 / min-luma=0 / max-luma=255 / log2-max-poc-lsb=8 / vui-timing-info / vui-hrd-info / slices=1 / opt-qp-pps / opt-ref-list-length-pps / no-multi-pass-opt-rps / scenecut-bias=0.05 / no-opt-cu-delta-qp / no-aq-motion / no-hdr / no-hdr-opt / no-dhdr10-opt / analysis-reuse-level=5 / scale-factor=0 / refine-intra=0 / refine-inter=0 / refine-mv=0 / no-limit-sao / ctu-info=0
Default                                  : Yes
Forced                                   : No

Audio
ID                                       : 2
Format                                   : AAC
Format/Info                              : Advanced Audio Codec
Format profile                           : LC
Codec ID                                 : A_AAC-2
Duration                                 : 4 h 28 min
Bit rate                                 : 128 kb/s
Channel(s)                               : 2 channels
Channel positions                        : Front: L R
Sampling rate                            : 48.0 kHz
Frame rate                               : 46.875 FPS (1024 SPF)
Compression mode                         : Lossy
Delay relative to video                  : 13 ms
Stream size                              : 245 MiB (2%)
Language                                 : English
Default                                  : No
Forced                                   : No













Formula1 2018 Round07 Canada Race 1080p FOXSPORTS AAC2.0 x265-NaN screenshots


Formula1 2018 Round07 Canada Race 1080p FOXSPORTS AAC2.0 x265-NaN screenshotsFormula1 2018 Round07 Canada Race 1080p FOXSPORTS AAC2.0 x265-NaN screenshotsFormula1 2018 Round07 Canada Race 1080p FOXSPORTS AAC2.0 x265-NaN screenshots

TitleFormula 1
Year2018
GenreSport
Rating5.1 (18 votes)
Plotn/A
Directorn/A
CastsSebastian Vettel,Valtteri Bottas,Max Verstappen,Daniel Ricciardo,Lewis Hamilton…
Runtimen/A
GenresSport
Formula 1


Tags

Other releases

Same genre with Formula1 2018 Round07 Canada Race 1080p FOXSPORTS AAC2.0 x265-NaN

UFC: The Ultimate 100 Greatest Fights 720p BluRay DD2.0 x264-CtrlHDSea Gamese 28: U23 Viet Nam vs U23 Indonesia HDTV DD2.0 x264-NetHDFIFA World Cup 2018 Round of 16 France vs Argentina 720p HDTV DD2.1 x264-VERUMFIFA World Cup 2018 Group D Nigeria vs Argentina 720p HDTV AC3 5.1 x264-VERUMMayweather vs Pacquiao 2015-05-02 Sky Sports HD 720pFormula1 2018 Round14 Italy Race 720p HDTV DD2.0 H.264

Comment for Formula1 2018 Round07 Canada Race 1080p FOXSPORTS AAC2.0 x265-NaN

Only members can create comment.