Formula1 2018 Round16 Russia Race 720p FOXSPORTS AAC2.0 x264-NaN

Download Formula1 2018 Round16 Russia Race 720p FOXSPORTS AAC2.0 x264-NaN  
Small Description
Basic Info
Uploaded byAnonymous at 2018-10-12 12:05:43
Action
Social
  • 1
Hot Meter
  • Views: 101
  • Hits: 5
  • Snatched: 1 x time(s)
  • Last Action: 2018-12-03 08:49:37
Peers1 Seeder | 0 Leecher
Formula1 2018 Round16 Russia Race 720p FOXSPORTS AAC2.0 x264-NaN  screenshots













Formula1 2018 Round16 Russia Race 720p FOXSPORTS AAC2.0 x264-NaN  screenshots


Format                                   : Matroska
Format version                           : Version 4 / Version 2
File size                                : 8.26 GiB
Duration                                 : 4 h 15 min
Overall bit rate                         : 4 623 kb/s
Encoded date                             : UTC 2018-09-30 23:03:13
Writing application                      : mkvmerge v15.0.0 ('Duel with the Devil') 64-bit
Writing library                          : libebml v1.3.5 + libmatroska v1.4.5
Writing frontend                         : StaxRip v1.7.0.0

Video
ID                                       : 1
Format                                   : AVC
Format/Info                              : Advanced Video Codec
Format profile                           : High@L4.1
Format settings                          : CABAC / 4 Ref Frames
Format settings, CABAC                   : Yes
Format settings, RefFrames               : 4 frames
Codec ID                                 : V_MPEG4/ISO/AVC
Duration                                 : 4 h 15 min
Bit rate                                 : 4 500 kb/s
Width                                    : 1 280 pixels
Height                                   : 720 pixels
Display aspect ratio                     : 16:9
Frame rate mode                          : Constant
Frame rate                               : 50.000 FPS
Color space                              : YUV
Chroma subsampling                       : 4:2:0
Bit depth                                : 8 bits
Scan type                                : Progressive
Bits/(Pixel*Frame)                       : 0.098
Stream size                              : 8.03 GiB (97%)
Writing library                          : x264 core 152 r2851 ba24899
Encoding settings                        : cabac=1 / ref=4 / deblock=1:0:0 / analyse=0x3:0x113 / me=umh / subme=7 / psy=1 / psy_rd=1.00:0.00 / mixed_ref=1 / me_range=16 / chroma_me=1 / trellis=1 / 8x8dct=1 / cqm=0 / deadzone=21,11 / fast_pskip=1 / chroma_qp_offset=-2 / threads=12 / lookahead_threads=2 / sliced_threads=0 / nr=0 / decimate=1 / interlaced=0 / bluray_compat=0 / constrained_intra=0 / bframes=4 / b_pyramid=2 / b_adapt=1 / b_bias=0 / direct=3 / weightb=1 / open_gop=0 / weightp=2 / keyint=250 / keyint_min=25 / scenecut=40 / intra_refresh=0 / rc_lookahead=40 / rc=abr / mbtree=1 / bitrate=4500 / ratetol=1.0 / qcomp=0.60 / qpmin=0 / qpmax=69 / qpstep=4 / ip_ratio=1.40 / aq=1:1.00
Default                                  : Yes
Forced                                   : No

Audio
ID                                       : 2
Format                                   : AAC
Format/Info                              : Advanced Audio Codec
Format profile                           : LC
Codec ID                                 : A_AAC-2
Duration                                 : 4 h 15 min
Bit rate                                 : 128 kb/s
Channel(s)                               : 2 channels
Channel positions                        : Front: L R
Sampling rate                            : 48.0 kHz
Frame rate                               : 46.875 FPS (1024 SPF)
Compression mode                         : Lossy
Delay relative to video                  : 13 ms
Stream size                              : 234 MiB (3%)
Language                                 : English
Default                                  : No
Forced                                   : No













Formula1 2018 Round16 Russia Race 720p FOXSPORTS AAC2.0 x264-NaN  screenshots


Formula1 2018 Round16 Russia Race 720p FOXSPORTS AAC2.0 x264-NaN  screenshotsFormula1 2018 Round16 Russia Race 720p FOXSPORTS AAC2.0 x264-NaN  screenshotsFormula1 2018 Round16 Russia Race 720p FOXSPORTS AAC2.0 x264-NaN  screenshots



Tags

Other releases

Same genre with Formula1 2018 Round16 Russia Race 720p FOXSPORTS AAC2.0 x264-NaN

FIFA World Cup 2018 Quarter Final Uruguay vs France 1080p HDTV x264-VERUMFIFA World Cup 2018 Group E Brazil vs Costa Rica 720p HDTV x264-VERUMFIFA World Cup 2018 Round of 16 Brazil vs Mexico 720p HDTV x264-VERUMFIFA World Cup 2018 Group C Denmark vs Australia 720p HDTV x264-VERUMFIFA World Cup 2018 Group B Iran vs Portugal 720p HDTV AC3 5.1 x264-VERUMFIFA World Cup 2018 Group F Mexico vs Sweden 720p HDTV x264-KYR

Comment for Formula1 2018 Round16 Russia Race 720p FOXSPORTS AAC2.0 x264-NaN

Only members can create comment.