NetHD.org

Gauche the Cellist 1982 1080p BluRay DTS x264-HAiKU

Download Gauche the Cellist 1982 1080p BluRay DTS x264-HAiKU 
Small DescriptionSero hiki no Gôshu (original title)
Basic Info
Uploaded byAnonymous at 2019-02-11 15:40:10
Action
Hot Meter
  • Views: 252
  • Hits: 9
  • Snatched: 2 x time(s)
  • Last Action: 2019-08-19 09:32:30
Peers1 Seeder | 0 Leecher



Gauche the Cellist 1982 1080p BluRay DTS x264-HAiKU screenshots













Gauche the Cellist 1982 1080p BluRay DTS x264-HAiKU screenshots


General
Unique ID                                : 175780172224326746806311897387895544040 (0x843E079C7E1B4CB587B3D4F25CFAD8E8)
Complete name                            : K:\gauche.the.cellist.1982.1080p.bluray.x264-haiku.mkv
Format                                   : Matroska
Format version                           : Version 4 / Version 2
File size                                : 2.65 GiB
Duration                                 : 1 h 1 min
Overall bit rate                         : 6 158 kb/s
Encoded date                             : UTC 2017-06-06 17:26:17
Writing application                      : mkvmerge v8.3.0 ('Over the Horizon') 64bit
Writing library                          : libebml v1.3.1 + libmatroska v1.4.2

Video
ID                                       : 1
Format                                   : AVC
Format/Info                              : Advanced Video Codec
Format profile                           : High@L4.1
Format settings                          : CABAC / 4 Ref Frames
Format settings, CABAC                   : Yes
Format settings, RefFrames               : 4 frames
Codec ID                                 : V_MPEG4/ISO/AVC
Duration                                 : 1 h 1 min
Bit rate                                 : 5 388 kb/s
Width                                    : 1 488 pixels
Height                                   : 1 080 pixels
Display aspect ratio                     : 1.378
Frame rate mode                          : Constant
Frame rate                               : 23.976 (24000/1001) FPS
Color space                              : YUV
Chroma subsampling                       : 4:2:0
Bit depth                                : 8 bits
Scan type                                : Progressive
Bits/(Pixel*Frame)                       : 0.140
Stream size                              : 2.32 GiB (87%)
Writing library                          : x264 core 150 r2829 d1fe6fd
Encoding settings                        : cabac=1 / ref=4 / deblock=1:-3:-3 / analyse=0x3:0x133 / me=umh / subme=9 / psy=1 / psy_rd=1.00:0.00 / mixed_ref=1 / me_range=16 / chroma_me=1 / trellis=2 / 8x8dct=1 / cqm=0 / deadzone=21,11 / fast_pskip=0 / chroma_qp_offset=-2 / threads=18 / lookahead_threads=1 / sliced_threads=0 / nr=0 / decimate=1 / interlaced=0 / bluray_compat=0 / constrained_intra=0 / bframes=3 / b_pyramid=2 / b_adapt=1 / b_bias=0 / direct=3 / weightb=1 / open_gop=0 / weightp=2 / keyint=250 / keyint_min=23 / scenecut=40 / intra_refresh=0 / rc_lookahead=50 / rc=2pass / mbtree=1 / bitrate=5388 / ratetol=1.0 / qcomp=0.60 / qpmin=0 / qpmax=69 / qpstep=4 / cplxblur=20.0 / qblur=0.5 / ip_ratio=1.40 / aq=1:1.00
Language                                 : English
Default                                  : Yes
Forced                                   : No

Audio
ID                                       : 2
Format                                   : DTS
Format/Info                              : Digital Theater Systems
Codec ID                                 : A_DTS
Duration                                 : 1 h 1 min
Bit rate mode                            : Constant
Bit rate                                 : 768 kb/s
Channel(s)                               : 1 channel
Channel positions                        : Front: C
Sampling rate                            : 48.0 kHz
Frame rate                               : 93.750 FPS (512 SPF)
Bit depth                                : 24 bits
Compression mode                         : Lossy
Stream size                              : 338 MiB (12%)
Language                                 : Japanese
Default                                  : Yes
Forced                                   : No

Text
ID                                       : 3
Format                                   : UTF-8
Codec ID                                 : S_TEXT/UTF8
Codec ID/Info                            : UTF-8 Plain Text
Duration                                 : 1 h 1 min
Bit rate                                 : 16 b/s
Count of elements                        : 313
Stream size                              : 7.39 KiB (0%)
Title                                    : forced
Language                                 : English
Default                                  : Yes
Forced                                   : Yes

Menu
00:00:00.000                             : en:00:00:00.000
00:01:31.300                             : en:00:01:31.300
00:06:42.277                             : en:00:06:42.277
00:09:51.090                             : en:00:09:51.090
00:13:27.724                             : en:00:13:27.724
00:16:31.657                             : en:00:16:31.657
00:20:18.592                             : en:00:20:18.592
00:22:49.076                             : en:00:22:49.076
00:23:56.643                             : en:00:23:56.643
00:27:46.373                             : en:00:27:46.373
00:30:58.648                             : en:00:30:58.648
00:33:56.034                             : en:00:33:56.034
00:35:49.355                             : en:00:35:49.355
00:39:51.806                             : en:00:39:51.806
00:43:35.279                             : en:00:43:35.279
00:48:39.750                             : en:00:48:39.750
00:52:22.473                             : en:00:52:22.473
00:57:07.257                             : en:00:57:07.257













Gauche the Cellist 1982 1080p BluRay DTS x264-HAiKU screenshots


Gauche the Cellist 1982 1080p BluRay DTS x264-HAiKU screenshots
Gauche the Cellist 1982 1080p BluRay DTS x264-HAiKU screenshots
Gauche the Cellist 1982 1080p BluRay DTS x264-HAiKU screenshots

TitleSero hiki no Gôshu
Year1982
Genre
Rating7 (1,199 votes)
Plotn/A
DirectorIsao Takahata
CastsHideki Sasaki,Fuyumi Shiraishi,Masashi Amenomori,Junji Chiba,Kôichi Hashimoto…
Runtime60 min
Sero hiki no Gôshu


How To Train Your Dragon 2010 ViE mHD 720p Bluray x264 AC3Laputa: Castle in the Sky 1986 720p BluRay AAC x264-CtrlHDMeet The Robinsons 2007 mHD Bluray DD5.1 x264-TRiMRalph Breaks the Internet 2018 ViE 720p BluRay x264 DTS-HDChinaRobots 2005 1080p Blu-ray AVC DTS-CHDBitsFairy Tail : Priestess of the Phoenix 2012 1080p BluRay FLAC2.0 x264

Only members can create comment.