Hang Em High 1968 Bluray 1080p DTS x264-Grym

Download Hang Em High 1968 Bluray 1080p DTS x264-Grym Free
Small DescriptionTreo cổ chúng lên l Cao bồi viễn tây l Clint Eastwood
Basic Info
Uploaded byanvietcanh2 (Uploader) at 2016-05-20 09:32:31
Action
Social
  • 1
Hot Meter
  • Views: 244
  • Hits: 17
  • Snatched: 8 x time(s)
  • Last Action: 2016-09-24 08:05:57
Peers0 Seeder | 0 Leecher
Hang Em High 1968 Bluray 1080p DTS x264-Grym

Nội dung:
Jed Cooper là một cựu cảnh sát, anh đi mua một đàn bò về nuôi, trên đường về anh bị một nhóm dân quân đuổi bắt, cho là anh đã giết chủ trại và cướp bò. Họ treo cổ anh rồi bỏ đi, thật may là anh chưa chết. Anh được ông Thẩm phán lãnh địa Oklahoma thu nhận làm cảnh sát…

Mediainfo:

General
Unique ID                                : 198868748889902192229431294220199462613 (0x959CBA544FB389ACB6B2446C871F06D5)
Complete name                            : E:\Hang.Em.High.1968.Bluray.1080p.DTS.x264-Grym.mkv
Format                                   : Matroska
Format version                           : Version 4 / Version 2
File size                                : 14.2 GiB
Duration                                 : 1h 54mn
Overall bit rate mode                    : Variable
Overall bit rate                         : 17.7 Mbps
Encoded date                             : UTC 2016-02-13 16:33:12
Writing application                      : mkvmerge v8.8.0 ('Wind at my back') 32bit
Writing library                          : libebml v1.3.3 + libmatroska v1.4.4

Video
ID                                       : 1
Format                                   : AVC
Format/Info                              : Advanced Video Codec
Format profile                           : High@L4.1
Format settings, CABAC                   : Yes
Format settings, ReFrames                : 4 frames
Codec ID                                 : V_MPEG4/ISO/AVC
Duration                                 : 1h 54mn
Bit rate mode                            : Variable
Bit rate                                 : 14.0 Mbps
Maximum bit rate                         : 30.0 Mbps
Width                                    : 1 920 pixels
Height                                   : 1 080 pixels
Display aspect ratio                     : 16:9
Frame rate mode                          : Constant
Frame rate                               : 23.976 (24000/1001) fps
Color space                              : YUV
Chroma subsampling                       : 4:2:0
Bit depth                                : 8 bits
Scan type                                : Progressive
Bits/(Pixel*Frame)                       : 0.282
Stream size                              : 11.2 GiB (79%)
Language                                 : English
Default                                  : Yes
Forced                                   : No

Audio #1
ID                                       : 2
Format                                   : DTS
Format/Info                              : Digital Theater Systems
Format profile                           : MA / Core
Mode                                     : 16
Format settings, Endianness              : Big
Codec ID                                 : A_DTS
Duration                                 : 1h 54mn
Bit rate mode                            : Variable / Constant
Bit rate                                 : 3 415 Kbps / 1 509 Kbps
Channel(s)                               : 6 channels
Channel positions                        : Front: L C R, Side: L R, LFE
Sampling rate                            : 48.0 KHz
Frame rate                               : 93.750 fps (512 spf)
Bit depth                                : 24 bits
Compression mode                         : Lossless / Lossy
Stream size                              : 2.74 GiB (19%)
Language                                 : English
Default                                  : Yes
Forced                                   : No

Audio #2
ID                                       : 3
Format                                   : AC-3
Format/Info                              : Audio Coding 3
Mode extension                           : CM (complete main)
Format settings, Endianness              : Big
Codec ID                                 : A_AC3
Duration                                 : 1h 54mn
Bit rate mode                            : Constant
Bit rate                                 : 224 Kbps
Channel(s)                               : 2 channels
Channel positions                        : Front: L R
Sampling rate                            : 48.0 KHz
Frame rate                               : 31.250 fps (1536 spf)
Compression mode                         : Lossy
Stream size                              : 184 MiB (1%)
Language                                 : English
Default                                  : No
Forced                                   : No

Text #1
ID                                       : 4
Format                                   : PGS
Muxing mode                              : zlib
Codec ID                                 : S_HDMV/PGS
Codec ID/Info                            : Picture based subtitle format used on BDs/HD-DVDs
Duration                                 : 1h 51mn
Bit rate                                 : 8 191 bps
Count of elements                        : 2062
Stream size                              : 6.56 MiB (0%)
Language                                 : English
Default                                  : No
Forced                                   : No

Text #2
ID                                       : 5
Format                                   : PGS
Muxing mode                              : zlib
Codec ID                                 : S_HDMV/PGS
Codec ID/Info                            : Picture based subtitle format used on BDs/HD-DVDs
Duration                                 : 1h 53mn
Bit rate                                 : 7 185 bps
Count of elements                        : 1860
Stream size                              : 5.82 MiB (0%)
Language                                 : Spanish
Default                                  : No
Forced                                   : No

Menu
00:00:00.000                             : en:00:00:00.000
00:02:07.085                             : en:00:02:07.085
00:08:40.811                             : en:00:08:40.811
00:14:42.631                             : en:00:14:42.631
00:19:14.570                             : en:00:19:14.570
00:22:49.201                             : en:00:22:49.201
00:25:08.048                             : en:00:25:08.048
00:28:57.819                             : en:00:28:57.819
00:31:17.959                             : en:00:31:17.959
00:32:57.976                             : en:00:32:57.976
00:38:04.156                             : en:00:38:04.156
00:39:29.450                             : en:00:39:29.450
00:42:31.715                             : en:00:42:31.715
00:45:02.491                             : en:00:45:02.491
00:47:29.930                             : en:00:47:29.930
00:50:23.895                             : en:00:50:23.895
00:56:57.038                             : en:00:56:57.038
00:58:08.693                             : en:00:58:08.693
01:03:40.233                             : en:01:03:40.233
01:04:43.588                             : en:01:04:43.588
01:07:36.969                             : en:01:07:36.969
01:10:14.376                             : en:01:10:14.376
01:13:46.713                             : en:01:13:46.713
01:16:05.560                             : en:01:16:05.560
01:20:56.351                             : en:01:20:56.351
01:21:57.787                             : en:01:21:57.787
01:27:07.388                             : en:01:27:07.388
01:30:53.739                             : en:01:30:53.739
01:35:59.378                             : en:01:35:59.378
01:39:31.966                             : en:01:39:31.966
01:41:18.405                             : en:01:41:18.405
01:49:07.916                             : en:01:49:07.916
01:54:39.205                             : en:01:54:39.205


Hang Em High 1968 Bluray 1080p DTS x264-Grym screenshots


Tags

Other releases

Same genre with Hang Em High 1968 Bluray 1080p DTS x264-Grym

Ironclad: Battle for Blood 2014 720p BluRay DD5.1 x264-CRiSCThat Thing You Do 1996 Theatrical Cut 720p BluRay DD5.1 x264-EbPEagle Eye 2008 mHD BluRay DD5.1 x264-TRiMMemoirs of an Invisible Man 1992 720p BluRay FLAC x264-DONThe Protector 1985 1080p GER Blu-ray AVC DTS-HD MA 5.1-THEORYHard Target 1993 ViE mHD BluRay DD5.1 x264-BiRD

Comment for Hang Em High 1968 Bluray 1080p DTS x264-Grym

Only members can create comment.