NetHD.org

Helene Fischer - Live Die Arena Tournee (2018) 1080i Blu-ray AVC DTS-HD MA5.1

Download Helene Fischer - Live Die Arena Tournee (2018) 1080i Blu-ray AVC DTS-HD MA5.1 
Small DescriptionHelene Fischer là nữ ca sĩ nổi tiếng người Đức. Live show 2018
Basic Info
Uploaded bycongdt (Uploader) at 2018-08-21 16:14:41
Action
Social
  • 1
Hot Meter
  • Views: 435
  • Hits: 26
  • Snatched: 10 x time(s)
  • Last Action: 2019-03-15 13:09:42
Peers1 Seeder | 1 Leecher


Helene Fischer - Live Die Arena Tournee (2018) 1080i Blu-ray AVC DTS-HD MA5.1 screenshots


Tracklist:
1. Intro
2. Nur mit dir
3. Phänomen
4. Das volle Programm
5. Schmetterling
6. Weil Liebe nie zerbricht
7. Mit keinem andern
8. Ich will immer wieder... dieses Fieber spürn
9. Sowieso
10. Und morgen früh küss ich dich wach
11. Die schönste Reise
12. Ich wollte mich nie mehr verlieben
13. Wenn du lachst
14. Hit-Medley
15. Lieb mich dann
16. Du hast mich stark gemacht
17. Mit jedem Herschlag
18. Herzbeben
19. Dein Blick
20. Mit dem Wind
21. Wir zwei
22. Fehlerfrei
23. Wir brechen das Schweigen
24. Achterbahn
25. Flieger
26. Unser Tag
27. Atemlos durch die Nacht

Screen Shot:

Helene Fischer - Live Die Arena Tournee (2018) 1080i Blu-ray AVC DTS-HD MA5.1 screenshots Helene Fischer - Live Die Arena Tournee (2018) 1080i Blu-ray AVC DTS-HD MA5.1 screenshots Helene Fischer - Live Die Arena Tournee (2018) 1080i Blu-ray AVC DTS-HD MA5.1 screenshots Helene Fischer - Live Die Arena Tournee (2018) 1080i Blu-ray AVC DTS-HD MA5.1 screenshots

Helene Fischer - Live Die Arena Tournee (2018) 1080i Blu-ray AVC DTS-HD MA5.1 screenshots Helene Fischer - Live Die Arena Tournee (2018) 1080i Blu-ray AVC DTS-HD MA5.1 screenshots Helene Fischer - Live Die Arena Tournee (2018) 1080i Blu-ray AVC DTS-HD MA5.1 screenshots Helene Fischer - Live Die Arena Tournee (2018) 1080i Blu-ray AVC DTS-HD MA5.1 screenshots




QUICK SUMMARY:

Disc Title: Helene Fischer.Live.Die Arena-Tournee.2018.BD1080i
Disc Size: 46 525 259 190 bytes
Protection: AACS
BD-Java: No
Playlist: 00000.MPLS
Size: 62 429 184 bytes
Length: 0:00:30.120
Total Bitrate: 16,58 Mbps
Video: MPEG-4 AVC Video / 14268 kbps / 1080i / 25 fps / 16:9 / High Profile 4.1
Audio: German / DTS-HD Master Audio / 5.1 / 48 kHz / 1467 kbps / 24-bit (DTS Core: 5.1 / 48 kHz / 1509 kbps / 24-bit)


Quote
DISC INFO:

Disc Title:     Helene Fischer.Live.Die Arena-Tournee.2018.BD1080i
Disc Size:      46 525 259 190 bytes
Protection:     AACS
BD-Java:        No
Extras:         50Hz Content
BDInfo:         0.5.8

PLAYLIST REPORT:

Name:                   00000.MPLS
Length:                 0:00:30.120 (h:m:s.ms)
Size:                   62 429 184 bytes
Total Bitrate:          16,58 Mbps

VIDEO:

Codec                   Bitrate             Description
-----                   -------             -----------
MPEG-4 AVC Video        14268 kbps          1080i / 25 fps / 16:9 / High Profile 4.1

AUDIO:

Codec                           Language        Bitrate         Description
-----                           --------        -------         -----------
DTS-HD Master Audio             German          1467 kbps       5.1 / 48 kHz / 1467 kbps / 24-bit (DTS Core: 5.1 / 48 kHz / 1509 kbps / 24-bit)

FILES:

Name            Time In         Length          Size            Total Bitrate
----            -------         ------          ----            -------------
00000.M2TS      0:00:00.000     0:00:09.040     8 638 464       7 645
00002.M2TS      0:00:09.040     0:00:09.039     13 068 288      11 565
00003.M2TS      0:00:18.080     0:00:12.039     40 722 432      27 058

CHAPTERS:

Number          Time In         Length          Avg Video Rate  Max 1-Sec Rate  Max 1-Sec Time  Max 5-Sec Rate  Max 5-Sec Time  Max 10Sec Rate  Max 10Sec Time  Avg Frame Size  Max Frame Size  Max Frame Time
------          -------         ------          --------------  --------------  --------------  --------------  --------------  --------------  --------------  --------------  --------------  --------------
1               0:00:00.000     0:00:30.120     14 268 kbps     33 509 kbps     00:00:23.280    28 095 kbps     00:00:19.000    26 069 kbps     00:00:18.600    71 341 bytes    385 842 bytes   00:00:14.040

STREAM DIAGNOSTICS:

File            PID             Type            Codec           Language                Seconds                 Bitrate                 Bytes           Packets
----            ---             ----            -----           --------                --------------          --------------          -------------   -----
00000.M2TS      4113 (0x1011)   0x1B            AVC                                     8,880                   7 384                   8 196 648       44 669
00002.M2TS      4113 (0x1011)   0x1B            AVC                                     8,880                   11 210                  12 442 881      67 751
00003.M2TS      4113 (0x1011)   0x1B            AVC                                     11,880                  22 276                  33 080 314      179 946
00003.M2TS      4352 (0x1100)   0x86            DTS-HD MA       deu (German)            11,880                  3 720                   5 524 516       31 711




Paris by Night 125: Chiều Mưa Biên Giới 2018 iPad BluRay AAC x264-MALParis By Night 123: Ảo ảnh 2017 mHD BluRay x264 DD2.0-QDTLaura Pausini - Laura Live World Tour 09 (2009) [PAL-DVD9]Paris by Night 122: Duyên Phận 2017 720p BluRay DD2.0 x264-TRiMGala Nhạc Việt 11 - Về Nhà Đón Tết​ (2018) RemuxParis By Night 69: Song Ca Nợ Tình 2003 NTSC DVD9

Only members can create comment.